VideoHelp Forum

Our website is made possible by displaying online advertisements to our visitors. Consider supporting us by disable your adblocker or Try ConvertXtoDVD and convert all your movies to DVD. Free trial ! :)
+ Reply to Thread
Results 1 to 4 of 4
Thread
  1. Member
    Join Date
    Feb 2016
    Location
    Lithuania
    Search PM
    Hello, so I want to extract Teletext subtitles from .ts file. I am using ProjectX, but I need 803 Teletext page and I can't select that in ProjectX becouse that page doesn't exist in ProjectX. What should I do? Is there any other programs like ProjectX?

    File info:
    Code:
    Video
    ID                          : 1201 (0x4B1)
    Menu ID                     : 5111 (0x13F7)
    Format                      : MPEG Video
    Format version              : Version 2
    Format profile              : Main@Main
    Format settings, BVOP       : Yes
    Format settings, Matrix     : Custom
    Format settings, GOP        : Variable
    Format settings, picture st : Frame
    Codec ID                    : 2
    Duration                    : 19mn 43s
    Bit rate                    : 3 143 Kbps
    Maximum bit rate            : 3 000 Kbps
    Width                       : 720 pixels
    Height                      : 576 pixels
    Display aspect ratio        : 16:9
    Frame rate                  : 25.000 fps
    Standard                    : PAL
    Color space                 : YUV
    Chroma subsampling          : 4:2:0
    Bit depth                   : 8 bits
    Scan type                   : Interlaced
    Scan order                  : Top Field First
    Compression mode            : Lossy
    Bits/(Pixel*Frame)          : 0.303
    Time code of first frame    : 00:00:00:00
    Time code source            : Group of pictures header
    GOP, Open/Closed            : Open
    Stream size                 : 444 MiB (85%)
    
    Audio #1
    ID                          : 2784 (0xAE0)
    Menu ID                     : 5111 (0x13F7)
    Format                      : MPEG Audio
    Format version              : Version 1
    Format profile              : Layer 2
    Codec ID                    : 3
    Duration                    : 19mn 43s
    Bit rate mode               : Constant
    Bit rate                    : 192 Kbps
    Channel(s)                  : 2 channels
    Sampling rate               : 48.0 KHz
    Compression mode            : Lossy
    Delay relative to video     : 23ms
    Stream size                 : 27.1 MiB (5%)
    Language                    : Russian
    
    Audio #2
    ID                          : 2785 (0xAE1)
    Menu ID                     : 5111 (0x13F7)
    Format                      : MPEG Audio
    Format version              : Version 1
    Format profile              : Layer 2
    Mode                        : Joint stereo
    Mode extension              : Intensity Stereo + MS Stereo
    Codec ID                    : 3
    Duration                    : 19mn 43s
    Bit rate mode               : Constant
    Bit rate                    : 192 Kbps
    Channel(s)                  : 2 channels
    Sampling rate               : 48.0 KHz
    Compression mode            : Lossy
    Delay relative to video     : 23ms
    Stream size                 : 27.1 MiB (5%)
    Language                    : English
    
    Text #1
    ID                          : 2786 (0xAE2)
    Menu ID                     : 5111 (0x13F7)
    Format                      : DVB Subtitle
    Codec ID                    : 6
    Duration                    : 19mn 39s
    Delay relative to video     : 4s 87ms
    Language                    : Estonian
    
    Text #2
    ID                          : 2787 (0xAE3)
    Menu ID                     : 5111 (0x13F7)
    Format                      : DVB Subtitle
    Codec ID                    : 6
    Duration                    : 19mn 40s
    Delay relative to video     : 2s 947ms
    Language                    : Latvian
    
    Text #3
    ID                          : 2788 (0xAE4)
    Menu ID                     : 5111 (0x13F7)
    Format                      : DVB Subtitle
    Codec ID                    : 6
    Duration                    : 19mn 21s
    Delay relative to video     : 5s 467ms
    Language                    : Lithuanian
    
    Text #4
    ID                          : 2789 (0xAE5)-599
    Menu ID                     : 5111 (0x13F7)
    Format                      : Teletext Subtitle
    Language                    : Latvian
    
    Text #5
    ID                          : 2789 (0xAE5)-801
    Menu ID                     : 5111 (0x13F7)
    Format                      : Teletext Subtitle
    Language                    : Estonian
    
    Text #6
    ID                          : 2789 (0xAE5)-803
    Menu ID                     : 5111 (0x13F7)
    Format                      : Teletext Subtitle
    Language                    : Lithuanian
    
    Menu
    ID                          : 32 (0x20)
    Menu ID                     : 5111 (0x13F7)
    Duration                    : 19mn 43s
    List                        : 1201 (0x4B1) (MPEG Video) / 2784 (0xAE0) (MPEG Audio, Russian) / 2785 (0xAE1) (MPEG Audio, English) / 2786 (0xAE2) (DVB Subtitle, Estonian) / 2787 (0xAE3) (DVB Subtitle, Latvian) / 2788 (0xAE4) (DVB Subtitle, Lithuanian) / 2789 (0xAE5) ()
    Language                    :  / Russian / English / Estonian / Latvian / Lithuanian
    Last edited by Nojus741; 13th Feb 2016 at 11:10.
    Quote Quote  
  2. Member
    Join Date
    Jul 2008
    Location
    Old Dominion
    Search Comp PM
    Have you tried CCextractorGUI?
    Quote Quote  
  3. Member
    Join Date
    Feb 2016
    Location
    Lithuania
    Search PM
    Originally Posted by mail2tom View Post
    Have you tried CCextractorGUI?
    Yeah I have tried it didin't really work. I found the program that worked just now, TS-Doctor.
    Quote Quote  
  4. Member netmask56's Avatar
    Join Date
    Sep 2005
    Location
    Sydney, Australia
    Search Comp PM
    OMG! All you have to do in ProjectX is TYPE the page number in the box - the drop down menu has a collection of well known pages. In Australia the page number is 801 - it doesn't exist in the drop down list either. So place the cursor in the top left hand box where hit the backspace key a few time to clear what might be there and then type the numbers in. Simple!
    BeyonWiz T3 PVR ~ Popcorn A-500 ~ Samsung ES8000 65" LED TV ~ Windows 7 64bit ~ Yamaha RX-A1070 ~ QnapTS851-4G
    Quote Quote  



Similar Threads