VideoHelp Forum

Try DVDFab and download streaming video, copy, convert or make Blu-rays,DVDs! Download free trial !
+ Reply to Thread
Results 1 to 5 of 5
Thread
  1. Member
    Join Date
    Oct 2015
    Location
    Bhokraha-01, Sunsari ( Nepal )
    Search Comp PM
    I have a .mp4 file h264 codec

    H264 codec doesn't support on my Device

    I there any way to Change H264 to MPEG4 Video
    Quote Quote  
  2. I'm a MEGA Super Moderator Baldrick's Avatar
    Join Date
    Aug 2000
    Location
    Sweden
    Search Comp PM
    h264 is mpeg4 video. See https://en.wikipedia.org/wiki/MPEG-4

    But maybe you want divx/xvid mpeg4 part2 video? Then must you reconvert with for example Xmedia Recode(use the dvd player profile for example, or change to xvid video or mpeg-4 under the video tab).
    Quote Quote  
  3. Member
    Join Date
    Oct 2015
    Location
    Bhokraha-01, Sunsari ( Nepal )
    Search Comp PM
    General
    Complete name : G:\2015 New Movies\file 1.mp4
    Format : MPEG-4
    Format profile : Base Media / Version 2
    Codec ID : mp42
    File size : 658 MiB
    Duration : 2h 20mn
    Overall bit rate mode : Variable
    Overall bit rate : 656 Kbps
    Encoded date : UTC 2015-11-07 21:37:46
    Tagged date : UTC 2015-11-07 21:37:46
    gsst : 0
    gstd : 8416931
    gssd : BCAA6C185
    gshh : r2---sn-fapo3ox25a-3uhe.googlevideo.com

    Video
    ID : 1
    Format : AVC
    Format/Info : Advanced Video Codec
    Format profile : Baseline@L3.0
    Format settings, CABAC : No
    Format settings, ReFrames : 1 frame
    Codec ID : avc1
    Codec ID/Info : Advanced Video Coding
    Duration : 2h 20mn
    Bit rate : 557 Kbps
    Maximum bit rate : 1 751 Kbps
    Width : 640 pixels
    Height : 360 pixels
    Display aspect ratio : 16:9
    Frame rate mode : Constant
    Frame rate : 25.000 fps
    Color space : YUV
    Chroma subsampling : 4:2:0
    Bit depth : 8 bits
    Scan type : Progressive
    Bits/(Pixel*Frame) : 0.097
    Stream size : 559 MiB (85%)
    Tagged date : UTC 2015-11-07 21:39:42
    Color primaries : BT.709-5, BT.1361, IEC 61966-2-4, SMPTE RP177
    Transfer characteristics : BT.709-5, BT.1361
    Matrix coefficients : BT.709-5, BT.1361, IEC 61966-2-4 709, SMPTE RP177

    Audio
    ID : 2
    Format : AAC
    Format/Info : Advanced Audio Codec
    Format profile : LC
    Codec ID : 40
    Duration : 2h 20mn
    Bit rate mode : Variable
    Bit rate : 96.0 Kbps
    Maximum bit rate : 103 Kbps
    Channel(s) : 2 channels
    Channel positions : Front: L R
    Sampling rate : 44.1 KHz
    Compression mode : Lossy
    Stream size : 96.3 MiB (15%)
    Title : IsoMedia File Produced by Google, 5-11-2011
    Language : English
    Encoded date : UTC 2015-11-07 21:38:59
    Tagged date : UTC 2015-11-07 21:39:42
    Quote Quote  
  4. I'm a MEGA Super Moderator Baldrick's Avatar
    Join Date
    Aug 2000
    Location
    Sweden
    Search Comp PM
    And this mp4 doesn't work on your device? (AVC=H264=mpeg4 part 10)
    Quote Quote  
  5. Member
    Join Date
    Oct 2011
    Location
    Nigeria
    Search Comp PM
    This should really play on any device made in the last 10 years, perhaps it's your player, which os is your device using? If it's android, get vlc.
    Quote Quote  



Similar Threads