VideoHelp Forum

Try DVDFab and download streaming video, copy, convert or make Blu-rays,DVDs! Download free trial !
+ Reply to Thread
Results 1 to 3 of 3
Thread
  1. I am writing here because
    Originally Posted by mulvya
    It seems, from a cursory search, that the playback issue is due to the ffmpeg output missing a specific piece of proprietary metadata that Ambarella AVC encoders create viz. the 'AMBA' atom. Of course, it could be something else, but my impression is that it's related to this. Offhand, I don't know of a way to replicate this. You may have better luck at Videohelp.

    I have a file for which ffmpeg gave those properties:

    Code:
        Input #0, mov,mp4,m4a,3gp,3g2,mj2, from 'TEST.MOV':
          Metadata:
            major_brand     : qt  
            minor_version   : 0
            compatible_brands: qt  
            creation_time   : 2015-12-26 07:45:26
          Duration: 00:00:02.75, start: 0.000000, bitrate: 4935 kb/s
            Stream #0:0(eng): Video: h264 (Main) (avc1 / 0x31637661), yuvj420p(pc), 1280x720 [SAR 1:1 DAR 16:9], 4775 kb/s, 59.94 fps, 59.94 tbr, 180k tbn, 119.88 tbc (default)
            Metadata:
              creation_time   : 2015-12-26 07:45:26
              handler_name    : Ambarella AVC
            Stream #0:1(eng): Audio: aac (mp4a / 0x6134706D), 48000 Hz, mono, fltp, 64 kb/s (default)
            Metadata:
              creation_time   : 2015-12-26 07:45:26
              handler_name    : Ambarella AAC
    Which command line and version do I need to reproduce those properties?

    Goal is simple: my actioncam has a hdmi-output. I want to watch movies next to my own footage using my actioncam when I am abroad. Goal is to make the actioncam think, it was it's own footage to play it back. Currently I only get 'invalid'.

    I tried

    Code:
        ffmpeg -i "test.mp4" -s 1280x720 -vcodec libx264 -c:a libvo_aacenc -q:a 3 -r 59.94 -b:v 4935k -b:a 64k -ac 1 -ar 48000 TEST2.MOV
    But it's not the same, I get invalid.


    This is literally all:

    Code:
    L:\DCIM\100MEDIA>ffmpeg -i "filetoconvert.mov" -s 1280x720 -vcodec libx264 -c:a libvo_aacenc -q:a 3 -r 59.94 -b:v 4935k -b:a 64k -ac 1 -ar 48000 TEST2.MOV 
    ffmpeg version N-59696-gc0a33c4 Copyright (c) 2000-2014 the FFmpeg developers
      built on Jan  8 2014 22:07:06 with gcc 4.8.2 (GCC)
      configuration: --enable-gpl --enable-version3 --disable-w32threads --enable-avisynth --enable-bzlib --enable-fontconfig --enable-frei0r --enable-gnutls --enable-iconv --enable-libass --enable-libbluray --enable-libcaca --enable-libfreetype --enable-libgsm --enable-libilbc --enable-libmodplug --enable-libmp3lame --enable-libopencore-amrnb --enable-libopencore-amrwb --enable-libopenjpeg --enable-libopus --enable-librtmp --enable-libschroedinger --enable-libsoxr --enable-libspeex --enable-libtheora --enable-libtwolame --enable-libvidstab --enable-libvo-aacenc --enable-libvo-amrwbenc --enable-libvorbis --enable-libvpx --enable-libwavpack --enable-libx264 --enable-libxavs --enable-libxvid --enable-zlib
      libavutil      52. 62.100 / 52. 62.100
      libavcodec     55. 47.100 / 55. 47.100
      libavformat    55. 22.102 / 55. 22.102
      libavdevice    55.  5.102 / 55.  5.102
      libavfilter     4.  0.103 /  4.  0.103
      libswscale      2.  5.101 /  2.  5.101
      libswresample   0. 17.104 /  0. 17.104
      libpostproc    52.  3.100 / 52.  3.100
    Input #0, mov,mp4,m4a,3gp,3g2,mj2, from 'filetoconvert.mov':
      Metadata:
        major_brand     : mp42
        minor_version   : 0
        compatible_brands: isommp42
        creation_time   : 2012-09-17 17:44:06
      Duration: 00:02:13.72, start: 0.000000, bitrate: 1798 kb/s
        Stream #0:0(und): Video: h264 (High) (avc1 / 0x31637661), yuv420p, 1280x720, 1604 kb/s, 24 fps, 24 tbr, 48 tbn, 48 tbc (default)
        Metadata:
          creation_time   : 1970-01-01 00:00:00
          handler_name    : VideoHandler
        Stream #0:1(und): Audio: aac (mp4a / 0x6134706D), 44100 Hz, stereo, fltp, 191 kb/s (default)
        Metadata:
          creation_time   : 2012-09-17 17:44:06
          handler_name    : IsoMedia File Produced by Google, 5-11-2011
    [libx264 @ 000000000275f800] using cpu capabilities: MMX2 SSE2Fast SSSE3 SSE4.2 AVX
    [libx264 @ 000000000275f800] profile High, level 3.2
    [libx264 @ 000000000275f800] 264 - core 140 r2377 1ca7bb9 - H.264/MPEG-4 AVC codec - Copyleft 2003-2013 - http://www.videolan.org/x264.html - options: cabac=1 ref=3 deblock=1:0:0 analyse=0x3:0x113 me=hex subme=7 psy=1 psy_rd=1.00:0.00 mixed_ref=1 me_range=16 chroma_me=1 trellis=1 8x8dct=1 cqm=0 deadzone=21,11 fast_pskip=1 chroma_qp_offset=-2 threads=12 lookahead_threads=2 sliced_threads=0 nr=0 decimate=1 interlaced=0 bluray_compat=0 constrained_intra=0 bframes=3 b_pyramid=2 b_adapt=1 b_bias=0 direct=1 weightb=1 open_gop=0 weightp=2 keyint=250 keyint_min=25 scenecut=40 intra_refresh=0 rc_lookahead=40 rc=abr mbtree=1 bitrate=4935 ratetol=1.0 qcomp=0.60 qpmin=0 qpmax=69 qpstep=4 ip_ratio=1.40 aq=1:1.00
    Output #0, mov, to 'TEST2.MOV':
      Metadata:
        major_brand     : mp42
        minor_version   : 0
        compatible_brands: isommp42
        encoder         : Lavf55.22.102
        Stream #0:0(und): Video: h264 (libx264) (avc1 / 0x31637661), yuv420p, 1280x720, q=-1--1, 4935 kb/s, 11988 tbn, 59.94 tbc (default)
        Metadata:
          creation_time   : 1970-01-01 00:00:00
          handler_name    : VideoHandler
        Stream #0:1(und): Audio: aac (libvo_aacenc) (mp4a / 0x6134706D), 48000 Hz, mono, s16, 64 kb/s (default)
        Metadata:
          creation_time   : 2012-09-17 17:44:06
          handler_name    : IsoMedia File Produced by Google, 5-11-2011
    Stream mapping:
      Stream #0:0 -> #0:0 (h264 -> libx264)
      Stream #0:1 -> #0:1 (aac -> libvo_aacenc)
    Press [q] to stop, [?] for help
    frame=  188 fps=0.0 q=0.0 size=     111kB time=00:00:02.93 bitrate= 309.5kbits/s dup=112 drop=0    
    frame=  356 fps=334 q=0.0 size=     248kB time=00:00:05.83 bitrate= 348.1kbits/s dup=213 drop=0    
    frame=  408 fps=255 q=0.0 size=    1053kB time=00:00:06.81 bitrate=1265.7kbits/s dup=244 drop=0    
    frame=  451 fps=214 q=0.0 size=    2417kB time=00:00:07.32 bitrate=2702.0kbits/s dup=270 drop=0    
    frame=  508 fps=192 q=0.0 size=    3872kB time=00:00:08.26 bitrate=3837.9kbits/s dup=304 drop=0    
    frame=  565 fps=179 q=2.0 size=    5208kB time=00:00:09.24 bitrate=4614.3kbits/s dup=338 drop=0    
    frame=  615 fps=167 q=5.0 size=    6627kB time=00:00:10.22 bitrate=5307.9kbits/s dup=368 drop=0    
    frame=  655 fps=157 q=8.0 size=    7947kB time=00:00:10.74 bitrate=6062.0kbits/s dup=392 drop=0    
    frame=  700 fps=149 q=11.0 size=    9185kB time=00:00:11.67 bitrate=6443.2kbits/s dup=419 drop=0    
    frame=  738 fps=142 q=14.0 size=   10422kB time=00:00:12.16 bitrate=7015.8kbits/s dup=442 drop=0    
    frame=  788 fps=138 q=15.0 size=   11109kB time=00:00:13.15 bitrate=6920.1kbits/s dup=472 drop=0    
    frame=  828 fps=133 q=15.0 size=   11479kB time=00:00:13.64 bitrate=6893.8kbits/s dup=496 drop=0    
    frame=  900 fps=133 q=15.0 size=   11942kB time=00:00:15.09 bitrate=6482.2kbits/s dup=539 drop=0    
    frame= 1042 fps=144 q=12.0 size=   12122kB time=00:00:17.52 bitrate=5666.6kbits/s dup=624 drop=0    
    frame= 1152 fps=149 q=10.0 size=   12349kB time=00:00:19.01 bitrate=5319.6kbits/s dup=690 drop=0    
    frame= 1327 fps=161 q=7.0 size=   12553kB time=00:00:21.94 bitrate=4687.2kbits/s dup=795 drop=0    
    frame= 1372 fps=156 q=7.0 size=   13330kB time=00:00:22.90 bitrate=4768.5kbits/s dup=822 drop=0    
    frame= 1395 fps=150 q=9.0 size=   14875kB time=00:00:23.39 bitrate=5209.5kbits/s dup=836 drop=0    
    frame= 1422 fps=144 q=12.0 size=   16314kB time=00:00:23.88 bitrate=5596.3kbits/s dup=852 drop=0    
    frame= 1457 fps=139 q=14.0 size=   17704kB time=00:00:24.35 bitrate=5955.9kbits/s dup=873 drop=0    
    frame= 1492 fps=136 q=15.0 size=   18817kB time=00:00:24.84 bitrate=6205.3kbits/s dup=894 drop=0    
    frame= 1519 fps=130 q=16.0 size=   19619kB time=00:00:25.33 bitrate=6344.4kbits/s dup=910 drop=0    
    frame= 1554 fps=127 q=17.0 size=   20452kB time=00:00:25.82 bitrate=6488.2kbits/s dup=931 drop=0    
    frame= 1584 fps=125 q=18.0 size=   21106kB time=00:00:26.31 bitrate=6570.7kbits/s dup=949 drop=0    
    frame= 1619 fps=122 q=19.0 size=   21979kB time=00:00:26.80 bitrate=6717.4kbits/s dup=970 drop=0    
    frame= 1654 fps=119 q=20.0 size=   22644kB time=00:00:27.76 bitrate=6681.4kbits/s dup=991 drop=0    
    frame= 1689 fps=117 q=20.0 size=   23265kB time=00:00:28.25 bitrate=6745.3kbits/s dup=1012 drop=0    
    frame= 1722 fps=115 q=21.0 size=   23848kB time=00:00:28.74 bitrate=6796.3kbits/s dup=1032 drop=0    
    frame= 1754 fps=113 q=21.0 size=   24406kB time=00:00:29.23 bitrate=6838.7kbits/s dup=1051 drop=0    
    frame= 1787 fps=111 q=21.0 size=   24933kB time=00:00:29.72 bitrate=6870.9kbits/s dup=1071 drop=0    
    frame= 1819 fps=110 q=22.0 size=   25422kB time=00:00:30.21 bitrate=6892.0kbits/s dup=1090 drop=0    
    frame= 1854 fps=109 q=22.0 size=   25964kB time=00:00:30.70 bitrate=6926.5kbits/s dup=1111 drop=0    
    frame= 1887 fps=107 q=22.0 size=   26347kB time=00:00:31.66 bitrate=6815.6kbits/s dup=1131 drop=0    
    frame= 1922 fps=106 q=22.0 size=   26757kB time=00:00:32.15 bitrate=6816.1kbits/s dup=1152 drop=0    
    frame= 1954 fps=105 q=23.0 size=   27124kB time=00:00:32.64 bitrate=6805.7kbits/s dup=1171 drop=0    
    frame= 1989 fps=104 q=23.0 size=   27492kB time=00:00:33.14 bitrate=6795.9kbits/s dup=1192 drop=0    
    frame= 2011 fps=102 q=23.0 size=   27715kB time=00:00:33.63 bitrate=6751.1kbits/s dup=1205 drop=0    
    frame= 2049 fps=101 q=23.0 size=   28076kB time=00:00:34.12 bitrate=6740.5kbits/s dup=1228 drop=0    
    frame= 2086 fps=101 q=23.0 size=   28399kB time=00:00:34.59 bitrate=6725.7kbits/s dup=1250 drop=0    
    frame= 2121 fps=100 q=23.0 size=   28684kB time=00:00:35.57 bitrate=6605.7kbits/s dup=1271 drop=0    
    frame= 2161 fps= 99 q=23.0 size=   28976kB time=00:00:36.06 bitrate=6582.1kbits/s dup=1295 drop=0    
    frame= 2201 fps= 99 q=23.0 size=   29239kB time=00:00:36.55 bitrate=6552.8kbits/s dup=1319 drop=0    
    frame= 2244 fps= 98 q=23.0 size=   29506kB time=00:00:37.53 bitrate=6439.8kbits/s dup=1345 drop=0    
    frame= 2281 fps= 97 q=23.0 size=   29750kB time=00:00:38.00 bitrate=6412.8kbits/s dup=1367 drop=0    
    frame= 2319 fps= 96 q=23.0 size=   29998kB time=00:00:38.49 bitrate=6383.8kbits/s dup=1390 drop=0    
    frame= 2364 fps= 96 q=23.0 size=   30244kB time=00:00:39.47 bitrate=6276.2kbits/s dup=1417 drop=0    
    frame= 2416 fps= 96 q=23.0 size=   30487kB time=00:00:40.45 bitrate=6173.2kbits/s dup=1448 drop=0    
    frame= 2469 fps= 97 q=22.0 size=   30709kB time=00:00:40.96 bitrate=6140.4kbits/s dup=1480 drop=0    
    frame= 2531 fps= 97 q=22.0 size=   30972kB time=00:00:42.39 bitrate=5984.2kbits/s dup=1517 drop=0    
    frame= 2598 fps= 98 q=22.0 size=   31236kB time=00:00:43.38 bitrate=5898.7kbits/s dup=1557 drop=0    
    frame= 2658 fps= 98 q=21.0 size=   31490kB time=00:00:44.36 bitrate=5815.2kbits/s dup=1593 drop=0    
    frame= 2708 fps= 98 q=21.0 size=   31757kB time=00:00:45.32 bitrate=5740.2kbits/s dup=1623 drop=0    
    frame= 2761 fps= 98 q=21.0 size=   32060kB time=00:00:45.83 bitrate=5730.3kbits/s dup=1655 drop=0    
    frame= 2813 fps= 98 q=21.0 size=   32316kB time=00:00:46.79 bitrate=5657.4kbits/s dup=1686 drop=0    
    frame= 2868 fps= 98 q=20.0 size=   32593kB time=00:00:47.77 bitrate=5588.8kbits/s dup=1719 drop=0    
    frame= 2923 fps= 98 q=20.0 size=   32880kB time=00:00:48.73 bitrate=5527.0kbits/s dup=1752 drop=0    
    frame= 2973 fps= 98 q=20.0 size=   33188kB time=00:00:49.71 bitrate=5468.5kbits/s dup=1782 drop=0    
    frame= 3020 fps= 98 q=20.0 size=   33510kB time=00:00:50.20 bitrate=5467.6kbits/s dup=1810 drop=0    
    frame= 3073 fps= 98 q=20.0 size=   33776kB time=00:00:51.18 bitrate=5405.4kbits/s dup=1842 drop=0    
    frame= 3108 fps= 98 q=19.0 size=   33973kB time=00:00:51.65 bitrate=5387.5kbits/s dup=1863 drop=0    
    frame= 3158 fps= 98 q=19.0 size=   34331kB time=00:00:52.63 bitrate=5342.8kbits/s dup=1893 drop=0    
    frame= 3198 fps= 97 q=19.0 size=   34607kB time=00:00:53.12 bitrate=5336.1kbits/s dup=1917 drop=0    
    frame= 3243 fps= 97 q=19.0 size=   34922kB time=00:00:54.11 bitrate=5287.0kbits/s dup=1944 drop=0    
    frame= 3293 fps= 97 q=19.0 size=   35260kB time=00:00:55.07 bitrate=5245.1kbits/s dup=1974 drop=0    
    frame= 3335 fps= 97 q=19.0 size=   35571kB time=00:00:55.56 bitrate=5244.6kbits/s dup=1999 drop=0    
    frame= 3380 fps= 97 q=18.0 size=   35894kB time=00:00:56.54 bitrate=5200.3kbits/s dup=2026 drop=0    
    frame= 3423 fps= 96 q=18.0 size=   36281kB time=00:00:57.03 bitrate=5211.3kbits/s dup=2052 drop=0    
    frame= 3468 fps= 96 q=18.0 size=   36664kB time=00:00:58.01 bitrate=5177.2kbits/s dup=2079 drop=0    
    frame= 3517 fps= 96 q=18.0 size=   37059kB time=00:00:58.48 bitrate=5190.9kbits/s dup=2108 drop=0    
    frame= 3557 fps= 96 q=18.0 size=   37474kB time=00:00:59.46 bitrate=5162.4kbits/s dup=2132 drop=0    
    frame= 3602 fps= 96 q=18.0 size=   37933kB time=00:00:59.95 bitrate=5182.9kbits/s dup=2159 drop=0    
    frame= 3630 fps= 95 q=18.0 size=   38190kB time=00:01:00.44 bitrate=5175.7kbits/s dup=2176 drop=0    
    frame= 3672 fps= 95 q=18.0 size=   38569kB time=00:01:01.42 bitrate=5143.5kbits/s dup=2201 drop=0    
    frame= 3712 fps= 95 q=18.0 size=   38936kB time=00:01:01.89 bitrate=5153.1kbits/s dup=2225 drop=0    
    frame= 3752 fps= 94 q=18.0 size=   39321kB time=00:01:02.79 bitrate=5129.8kbits/s dup=2249 drop=0    
    frame= 3797 fps= 94 q=18.0 size=   39750kB time=00:01:03.36 bitrate=5138.7kbits/s dup=2276 drop=0    
    frame= 3837 fps= 94 q=18.0 size=   40145kB time=00:01:03.86 bitrate=5149.8kbits/s dup=2300 drop=0    
    frame= 3880 fps= 94 q=18.0 size=   40611kB time=00:01:04.84 bitrate=5130.7kbits/s dup=2326 drop=0    
    frame= 3922 fps= 94 q=18.0 size=   41066kB time=00:01:05.31 bitrate=5150.9kbits/s dup=2351 drop=0    
    frame= 3957 fps= 93 q=18.0 size=   41452kB time=00:01:05.80 bitrate=5160.5kbits/s dup=2372 drop=0    
    frame= 3997 fps= 93 q=18.0 size=   41894kB time=00:01:06.78 bitrate=5139.0kbits/s dup=2396 drop=0    
    frame= 4037 fps= 93 q=18.0 size=   42316kB time=00:01:07.27 bitrate=5152.8kbits/s dup=2420 drop=0    
    frame= 4072 fps= 93 q=18.0 size=   42707kB time=00:01:07.76 bitrate=5162.8kbits/s dup=2441 drop=0    
    frame= 4114 fps= 92 q=18.0 size=   43199kB time=00:01:08.72 bitrate=5149.3kbits/s dup=2466 drop=0    
    frame= 4162 fps= 93 q=18.0 size=   43515kB time=00:01:09.42 bitrate=5134.4kbits/s dup=2495 drop=0    
    frame= 4217 fps= 93 q=18.0 size=   43860kB time=00:01:10.19 bitrate=5118.5kbits/s dup=2528 drop=0    
    frame= 4267 fps= 93 q=18.0 size=   44185kB time=00:01:11.17 bitrate=5085.4kbits/s dup=2558 drop=0    
    frame= 4317 fps= 93 q=18.0 size=   44503kB time=00:01:12.13 bitrate=5053.8kbits/s dup=2588 drop=0    
    frame= 4367 fps= 93 q=18.0 size=   44885kB time=00:01:12.64 bitrate=5061.2kbits/s dup=2618 drop=0    
    frame= 4417 fps= 93 q=17.0 size=   45228kB time=00:01:13.60 bitrate=5033.4kbits/s dup=2648 drop=0    
    frame= 4467 fps= 93 q=17.0 size=   45637kB time=00:01:14.59 bitrate=5012.1kbits/s dup=2678 drop=0    
    frame= 4511 fps= 93 q=17.0 size=   46019kB time=00:01:15.08 bitrate=5021.1kbits/s dup=2704 drop=0    
    frame= 4554 fps= 93 q=17.0 size=   46368kB time=00:01:16.04 bitrate=4995.3kbits/s dup=2730 drop=0    
    frame= 4601 fps= 93 q=17.0 size=   46733kB time=00:01:16.53 bitrate=5002.3kbits/s dup=2758 drop=0    
    frame= 4646 fps= 92 q=17.0 size=   47170kB time=00:01:17.51 bitrate=4985.2kbits/s dup=2785 drop=0    
    frame= 4686 fps= 92 q=17.0 size=   47607kB time=00:01:18.00 bitrate=4999.7kbits/s dup=2809 drop=0    
    frame= 4719 fps= 92 q=17.0 size=   48015kB time=00:01:18.51 bitrate=5009.7kbits/s dup=2829 drop=0    
    frame= 4761 fps= 92 q=17.0 size=   48530kB time=00:01:19.45 bitrate=5003.6kbits/s dup=2854 drop=0    
    frame= 4804 fps= 92 q=17.0 size=   49059kB time=00:01:19.94 bitrate=5027.1kbits/s dup=2880 drop=0    
    frame= 4841 fps= 92 q=17.0 size=   49442kB time=00:01:20.92 bitrate=5004.9kbits/s dup=2902 drop=0    
    frame= 4881 fps= 92 q=17.0 size=   49914kB time=00:01:21.41 bitrate=5022.2kbits/s dup=2926 drop=0    
    frame= 4921 fps= 91 q=17.0 size=   50393kB time=00:01:21.90 bitrate=5040.0kbits/s dup=2950 drop=0    
    frame= 4964 fps= 91 q=18.0 size=   50853kB time=00:01:22.86 bitrate=5027.1kbits/s dup=2976 drop=0    
    frame= 5001 fps= 91 q=18.0 size=   51286kB time=00:01:23.35 bitrate=5040.1kbits/s dup=2998 drop=0    
    frame= 5038 fps= 91 q=18.0 size=   51732kB time=00:01:23.87 bitrate=5052.9kbits/s dup=3020 drop=0    
    frame= 5083 fps= 91 q=18.0 size=   52290kB time=00:01:24.83 bitrate=5049.6kbits/s dup=3047 drop=0    
    frame= 5123 fps= 91 q=18.0 size=   52817kB time=00:01:25.32 bitrate=5071.2kbits/s dup=3071 drop=0    
    frame= 5163 fps= 91 q=18.0 size=   53390kB time=00:01:26.28 bitrate=5069.2kbits/s dup=3095 drop=0    
    frame= 5198 fps= 90 q=18.0 size=   53895kB time=00:01:26.77 bitrate=5088.1kbits/s dup=3116 drop=0    
    frame= 5233 fps= 90 q=18.0 size=   54433kB time=00:01:27.26 bitrate=5110.0kbits/s dup=3137 drop=0    
    frame= 5268 fps= 90 q=19.0 size=   55073kB time=00:01:27.75 bitrate=5141.2kbits/s dup=3158 drop=0    
    frame= 5303 fps= 90 q=19.0 size=   55615kB time=00:01:28.24 bitrate=5162.9kbits/s dup=3179 drop=0    
    frame= 5348 fps= 90 q=19.0 size=   55967kB time=00:01:29.20 bitrate=5139.7kbits/s dup=3206 drop=0    
    frame= 5391 fps= 90 q=19.0 size=   56318kB time=00:01:29.69 bitrate=5143.6kbits/s dup=3232 drop=0    
    frame= 5428 fps= 90 q=19.0 size=   56640kB time=00:01:30.67 bitrate=5117.1kbits/s dup=3254 drop=0    
    frame= 5468 fps= 89 q=18.0 size=   56979kB time=00:01:31.16 bitrate=5119.9kbits/s dup=3278 drop=0    
    frame= 5513 fps= 89 q=18.0 size=   57365kB time=00:01:32.14 bitrate=5099.7kbits/s dup=3305 drop=0    
    frame= 5560 fps= 89 q=18.0 size=   57773kB time=00:01:32.61 bitrate=5110.0kbits/s dup=3333 drop=0    
    frame= 5595 fps= 89 q=18.0 size=   58062kB time=00:01:33.38 bitrate=5093.3kbits/s dup=3354 drop=0    
    frame= 5643 fps= 89 q=18.0 size=   58479kB time=00:01:34.08 bitrate=5091.5kbits/s dup=3383 drop=0    
    frame= 5683 fps= 89 q=18.0 size=   58779kB time=00:01:34.60 bitrate=5089.9kbits/s dup=3407 drop=0    
    frame= 5728 fps= 89 q=18.0 size=   59111kB time=00:01:35.56 bitrate=5067.3kbits/s dup=3434 drop=0    
    frame= 5770 fps= 89 q=18.0 size=   59432kB time=00:01:36.03 bitrate=5069.9kbits/s dup=3459 drop=0    
    frame= 5815 fps= 89 q=18.0 size=   59780kB time=00:01:37.01 bitrate=5048.0kbits/s dup=3486 drop=0    
    frame= 5865 fps= 89 q=18.0 size=   60258kB time=00:01:37.99 bitrate=5037.4kbits/s dup=3516 drop=0    
    frame= 5925 fps= 89 q=18.0 size=   60547kB time=00:01:38.97 bitrate=5011.4kbits/s dup=3552 drop=0    
    frame= 6015 fps= 90 q=17.0 size=   60822kB time=00:01:40.42 bitrate=4961.5kbits/s dup=3606 drop=0    
    frame= 6055 fps= 90 q=17.0 size=   61315kB time=00:01:40.91 bitrate=4977.3kbits/s dup=3630 drop=0    
    frame= 6092 fps= 90 q=17.0 size=   61798kB time=00:01:41.40 bitrate=4992.3kbits/s dup=3652 drop=0    
    frame= 6127 fps= 89 q=17.0 size=   62407kB time=00:01:42.38 bitrate=4993.2kbits/s dup=3673 drop=0    
    frame= 6162 fps= 89 q=18.0 size=   63220kB time=00:01:42.85 bitrate=5035.1kbits/s dup=3694 drop=0    
    frame= 6197 fps= 89 q=18.0 size=   63931kB time=00:01:43.34 bitrate=5067.6kbits/s dup=3715 drop=0    
    frame= 6232 fps= 89 q=18.0 size=   64666kB time=00:01:43.83 bitrate=5101.6kbits/s dup=3736 drop=0    
    frame= 6267 fps= 89 q=19.0 size=   65324kB time=00:01:44.32 bitrate=5129.3kbits/s dup=3757 drop=0    
    frame= 6307 fps= 88 q=19.0 size=   66047kB time=00:01:45.31 bitrate=5137.7kbits/s dup=3781 drop=0    
    frame= 6342 fps= 88 q=19.0 size=   66664kB time=00:01:45.80 bitrate=5161.7kbits/s dup=3802 drop=0    
    frame= 6382 fps= 88 q=19.0 size=   67416kB time=00:01:46.27 bitrate=5196.8kbits/s dup=3826 drop=0    
    frame= 6417 fps= 88 q=20.0 size=   68241kB time=00:01:47.25 bitrate=5212.3kbits/s dup=3847 drop=0    
    frame= 6457 fps= 88 q=20.0 size=   68942kB time=00:01:47.74 bitrate=5241.9kbits/s dup=3871 drop=0    
    frame= 6495 fps= 88 q=20.0 size=   69530kB time=00:01:48.23 bitrate=5262.6kbits/s dup=3894 drop=0    
    frame= 6529 fps= 88 q=20.0 size=   70148kB time=00:01:48.74 bitrate=5284.4kbits/s dup=3914 drop=0    
    frame= 6569 fps= 87 q=20.0 size=   70735kB time=00:01:49.68 bitrate=5283.0kbits/s dup=3938 drop=0    
    frame= 6607 fps= 87 q=20.0 size=   71321kB time=00:01:50.17 bitrate=5303.1kbits/s dup=3961 drop=0    
    frame= 6634 fps= 87 q=21.0 size=   71861kB time=00:01:50.66 bitrate=5319.5kbits/s dup=3977 drop=0    
    frame= 6664 fps= 87 q=21.0 size=   72395kB time=00:01:51.15 bitrate=5335.4kbits/s dup=3995 drop=0    
    frame= 6689 fps= 87 q=21.0 size=   72813kB time=00:01:51.64 bitrate=5342.6kbits/s dup=4010 drop=0    
    frame= 6719 fps= 86 q=21.0 size=   73234kB time=00:01:52.13 bitrate=5350.0kbits/s dup=4028 drop=0    
    frame= 6749 fps= 86 q=21.0 size=   73569kB time=00:01:52.62 bitrate=5351.0kbits/s dup=4046 drop=0    
    frame= 6784 fps= 86 q=21.0 size=   73922kB time=00:01:53.09 bitrate=5354.4kbits/s dup=4067 drop=0    
    frame= 6819 fps= 86 q=21.0 size=   74208kB time=00:01:53.58 bitrate=5351.9kbits/s dup=4088 drop=0    
    frame= 6859 fps= 86 q=21.0 size=   74517kB time=00:01:54.56 bitrate=5328.2kbits/s dup=4112 drop=0    
    frame= 6899 fps= 86 q=21.0 size=   74812kB time=00:01:55.06 bitrate=5326.4kbits/s dup=4136 drop=0    
    frame= 6939 fps= 86 q=21.0 size=   75084kB time=00:01:55.57 bitrate=5322.1kbits/s dup=4160 drop=0    
    frame= 6984 fps= 86 q=21.0 size=   75373kB time=00:01:56.51 bitrate=5299.6kbits/s dup=4187 drop=0    
    frame= 7026 fps= 86 q=21.0 size=   75641kB time=00:01:57.00 bitrate=5296.1kbits/s dup=4212 drop=0    
    frame= 7071 fps= 86 q=21.0 size=   75932kB time=00:01:57.98 bitrate=5272.3kbits/s dup=4239 drop=0    
    frame= 7111 fps= 86 q=21.0 size=   76247kB time=00:01:58.47 bitrate=5272.2kbits/s dup=4263 drop=0    
    frame= 7149 fps= 86 q=20.0 size=   76601kB time=00:01:59.45 bitrate=5253.2kbits/s dup=4286 drop=0    
    frame= 7189 fps= 85 q=21.0 size=   77008kB time=00:01:59.92 bitrate=5260.4kbits/s dup=4310 drop=0    
    frame= 7229 fps= 85 q=20.0 size=   77343kB time=00:02:00.41 bitrate=5261.8kbits/s dup=4334 drop=0    
    frame= 7266 fps= 85 q=21.0 size=   77853kB time=00:02:01.39 bitrate=5253.6kbits/s dup=4356 drop=0    
    frame= 7304 fps= 85 q=21.0 size=   78374kB time=00:02:01.88 bitrate=5267.5kbits/s dup=4379 drop=0    
    frame= 7341 fps= 85 q=21.0 size=   78836kB time=00:02:02.37 bitrate=5277.3kbits/s dup=4401 drop=0    
    frame= 7376 fps= 85 q=21.0 size=   79250kB time=00:02:02.86 bitrate=5283.8kbits/s dup=4422 drop=0    
    frame= 7416 fps= 85 q=21.0 size=   79746kB time=00:02:03.82 bitrate=5275.7kbits/s dup=4446 drop=0    
    frame= 7444 fps= 85 q=21.0 size=   80111kB time=00:02:04.31 bitrate=5278.9kbits/s dup=4463 drop=0    
    frame= 7479 fps= 85 q=21.0 size=   80530kB time=00:02:04.80 bitrate=5285.7kbits/s dup=4484 drop=0    
    frame= 7521 fps= 85 q=21.0 size=   80979kB time=00:02:05.30 bitrate=5294.3kbits/s dup=4509 drop=0    
    frame= 7563 fps= 85 q=21.0 size=   81522kB time=00:02:06.28 bitrate=5288.4kbits/s dup=4534 drop=0    
    frame= 7608 fps= 85 q=21.0 size=   81928kB time=00:02:06.75 bitrate=5295.1kbits/s dup=4561 drop=0    
    frame= 7651 fps= 85 q=21.0 size=   82358kB time=00:02:07.73 bitrate=5281.9kbits/s dup=4587 drop=0    
    frame= 7698 fps= 85 q=21.0 size=   82728kB time=00:02:08.24 bitrate=5284.5kbits/s dup=4615 drop=0    
    frame= 7753 fps= 85 q=21.0 size=   82930kB time=00:02:09.20 bitrate=5258.1kbits/s dup=4648 drop=0    
    frame= 7778 fps= 85 q=21.0 size=   83256kB time=00:02:09.69 bitrate=5258.7kbits/s dup=4663 drop=0    
    frame= 7958 fps= 86 q=20.0 size=   83418kB time=00:02:12.61 bitrate=5152.9kbits/s dup=4771 drop=0    
    frame= 8013 fps= 87 q=-1.0 Lsize=   83644kB time=00:02:13.72 bitrate=5123.9kbits/s dup=4804 drop=0    
    
    video:82396kB audio:1045kB subtitle:0 global headers:0kB muxing overhead 0.242196%
    [libx264 @ 000000000275f800] frame I:45    Avg QP: 6.46  size: 73925
    [libx264 @ 000000000275f800] frame P:3786  Avg QP: 9.90  size: 20610
    [libx264 @ 000000000275f800] frame B:4182  Avg QP:10.23  size:   721
    [libx264 @ 000000000275f800] consecutive B-frames: 26.3% 11.2%  3.2% 59.3%
    [libx264 @ 000000000275f800] mb I  I16..4: 32.1% 41.8% 26.1%
    [libx264 @ 000000000275f800] mb P  I16..4:  4.4% 11.5%  3.3%  P16..4: 22.2%  9.0%  5.9%  0.0%  0.0%    skip:43.8%
    [libx264 @ 000000000275f800] mb B  I16..4:  0.0%  0.0%  0.0%  B16..8:  8.7%  0.6%  0.1%  direct: 0.6%  skip:89.9%  L0:46.1% L1:50.7% BI: 3.2%
    [libx264 @ 000000000275f800] final ratefactor: 9.57
    [libx264 @ 000000000275f800] 8x8 transform intra:59.1% inter:53.8%
    [libx264 @ 000000000275f800] coded y,uvDC,uvAC intra: 57.7% 60.9% 36.8% inter: 7.0% 8.7% 2.7%
    [libx264 @ 000000000275f800] i16 v,h,dc,p: 40% 31% 16% 13%
    [libx264 @ 000000000275f800] i8 v,h,dc,ddl,ddr,vr,hd,vl,hu: 24% 35% 24%  2%  3%  2%  4%  3%  3%
    [libx264 @ 000000000275f800] i4 v,h,dc,ddl,ddr,vr,hd,vl,hu: 30% 38% 13%  3%  4%  3%  5%  2%  3%
    [libx264 @ 000000000275f800] i8c dc,h,v,p: 49% 27% 18%  6%
    [libx264 @ 000000000275f800] Weighted P-Frames: Y:3.6% UV:2.2%
    [libx264 @ 000000000275f800] ref P L0: 85.2%  4.7%  8.0%  2.1%  0.1%
    [libx264 @ 000000000275f800] ref B L0: 92.7%  6.2%  1.0%
    [libx264 @ 000000000275f800] ref B L1: 99.4%  0.6%
    [libx264 @ 000000000275f800] kb/s:5049.13
    
    L:\DCIM\100MEDIA>ffmpeg -i TEST2.MOV 
    ffmpeg version N-59696-gc0a33c4 Copyright (c) 2000-2014 the FFmpeg developers
      built on Jan  8 2014 22:07:06 with gcc 4.8.2 (GCC)
      configuration: --enable-gpl --enable-version3 --disable-w32threads --enable-avisynth --enable-bzlib --enable-fontconfig --enable-frei0r --enable-gnutls --enable-iconv --enable-libass --enable-libbluray --enable-libcaca --enable-libfreetype --enable-libgsm --enable-libilbc --enable-libmodplug --enable-libmp3lame --enable-libopencore-amrnb --enable-libopencore-amrwb --enable-libopenjpeg --enable-libopus --enable-librtmp --enable-libschroedinger --enable-libsoxr --enable-libspeex --enable-libtheora --enable-libtwolame --enable-libvidstab --enable-libvo-aacenc --enable-libvo-amrwbenc --enable-libvorbis --enable-libvpx --enable-libwavpack --enable-libx264 --enable-libxavs --enable-libxvid --enable-zlib
      libavutil      52. 62.100 / 52. 62.100
      libavcodec     55. 47.100 / 55. 47.100
      libavformat    55. 22.102 / 55. 22.102
      libavdevice    55.  5.102 / 55.  5.102
      libavfilter     4.  0.103 /  4.  0.103
      libswscale      2.  5.101 /  2.  5.101
      libswresample   0. 17.104 /  0. 17.104
      libpostproc    52.  3.100 / 52.  3.100
    Input #0, mov,mp4,m4a,3gp,3g2,mj2, from 'TEST2.MOV':
      Metadata:
        major_brand     : qt  
        minor_version   : 512
        compatible_brands: qt  
        encoder         : Lavf55.22.102
      Duration: 00:02:13.76, start: 0.033333, bitrate: 5122 kb/s
        Stream #0:0(eng): Video: h264 (High) (avc1 / 0x31637661), yuv420p, 1280x720, 5049 kb/s, 59.94 fps, 59.94 tbr, 11988 tbn, 119.88 tbc (default)
        Metadata:
          handler_name    : DataHandler
        Stream #0:1(eng): Audio: aac (mp4a / 0x6134706D), 48000 Hz, mono, fltp, 64 kb/s (default)
        Metadata:
          handler_name    : DataHandler
    At least one output file must be specified
    
    L:\DCIM\100MEDIA>ffmpeg -i original.MOV
    ffmpeg version N-59696-gc0a33c4 Copyright (c) 2000-2014 the FFmpeg developers
      built on Jan  8 2014 22:07:06 with gcc 4.8.2 (GCC)
      configuration: --enable-gpl --enable-version3 --disable-w32threads --enable-avisynth --enable-bzlib --enable-fontconfig --enable-frei0r --enable-gnutls --enable-iconv --enable-libass --enable-libbluray --enable-libcaca --enable-libfreetype --enable-libgsm --enable-libilbc --enable-libmodplug --enable-libmp3lame --enable-libopencore-amrnb --enable-libopencore-amrwb --enable-libopenjpeg --enable-libopus --enable-librtmp --enable-libschroedinger --enable-libsoxr --enable-libspeex --enable-libtheora --enable-libtwolame --enable-libvidstab --enable-libvo-aacenc --enable-libvo-amrwbenc --enable-libvorbis --enable-libvpx --enable-libwavpack --enable-libx264 --enable-libxavs --enable-libxvid --enable-zlib
      libavutil      52. 62.100 / 52. 62.100
      libavcodec     55. 47.100 / 55. 47.100
      libavformat    55. 22.102 / 55. 22.102
      libavdevice    55.  5.102 / 55.  5.102
      libavfilter     4.  0.103 /  4.  0.103
      libswscale      2.  5.101 /  2.  5.101
      libswresample   0. 17.104 /  0. 17.104
      libpostproc    52.  3.100 / 52.  3.100
    Input #0, mov,mp4,m4a,3gp,3g2,mj2, from 'original.MOV':
      Metadata:
        major_brand     : qt  
        minor_version   : 0
        compatible_brands: qt  
        creation_time   : 2015-12-26 07:45:26
      Duration: 00:00:02.75, start: 0.000000, bitrate: 4935 kb/s
        Stream #0:0(eng): Video: h264 (Main) (avc1 / 0x31637661), yuvj420p(pc), 1280x720 [SAR 1:1 DAR 16:9], 4775 kb/s, 59.94 fps, 59.94 tbr, 180k tbn, 119.88 tbc (default)
        Metadata:
          creation_time   : 2015-12-26 07:45:26
          handler_name    : Ambarella AVC
        Stream #0:1(eng): Audio: aac (mp4a / 0x6134706D), 48000 Hz, mono, fltp, 64 kb/s (default)
        Metadata:
          creation_time   : 2015-12-26 07:45:26
          handler_name    : Ambarella AAC
    At least one output file must be specified
    Quote Quote  
  2. Buried in your extensive post was this important line:

    Originally Posted by Professionelle Strategien View Post
    Goal is to make the actioncam think, it was it's own footage to play it back.
    You won't succeed at this. There is other metadata attached to the footage, and it is within a structure that lets the camera recognize it as its own.
    Quote Quote  
  3. Member
    Join Date
    Jul 2014
    Location
    Denmark
    Search Comp PM
    Have you tried using "-map_metadata" to map the metadata from input file to output file? I've not tested the following, but it should work:

    Code:
    -map_metadata:s:0 0:s:0 -map_metadata:s:1 0:s:1
    https://www.ffmpeg.org/ffmpeg.html#Advanced-options
    I'm the developer behind FFQueue. My posts might reflect this! ;-)
    Quote Quote  



Similar Threads