VideoHelp Forum

Our website is made possible by displaying online advertisements to our visitors. Consider supporting us by disable your adblocker or Try ConvertXtoDVD and convert all your movies to DVD. Free trial ! :)
+ Reply to Thread
Results 1 to 3 of 3
Thread
  1. Hi there all Video-helpers 1st of all thanks you took some time to check my post. And today i have bought one DVD and i ripped it with megui auto analysing TDecimate(cycleR=1) on guy's turban i can see blends which was very visible mostly anyone can noticed if they check but the funny thing it is not in all dvd but it is there on some frame i m trying to find more frame like these, please can anyone help how to fix this issue(would be so kind of you).


    Sample from DVD .VOB https://www.sendspace.com/file/21lenh
    Code:
    File info :
    General
    Complete name               : C:SINGH_IS_BLIING\VIDEO_TS\VTS_02_1.VOB
    Format                      : MPEG-PS
    File size                   : 1 024 MiB
    Duration                    : 19mn 1s
    Overall bit rate            : 7 523 Kbps
    
    Video
    ID                          : 224 (0xE0)
    Format                      : MPEG Video
    Format version              : Version 2
    Format profile              : Main@Main
    Format settings, BVOP       : Yes
    Format settings, Matrix     : Custom
    Format settings, GOP        : M=3, N=15
    Duration                    : 19mn 1s
    Bit rate                    : 6 700 Kbps
    Width                       : 720 pixels
    Height                      : 480 pixels
    Display aspect ratio        : 16:9
    Frame rate                  : 29.970 fps
    Standard                    : NTSC
    Color space                 : YUV
    Chroma subsampling          : 4:2:0
    Bit depth                   : 8 bits
    Scan type                   : Progressive
    Compression mode            : Lossy
    Bits/(Pixel*Frame)          : 0.647
    Time code of first frame    : 10:00:00:00
    Time code source            : Group of pictures header
    GOP, Open/Closed            : Open
    GOP, Open/Closed of first f : Closed
    Stream size                 : 912 MiB (89%)
    
    Audio #1
    ID                          : 189 (0xBD)-128 (0x80)
    Format                      : AC-3
    Format/Info                 : Audio Coding 3
    Mode extension              : CM (complete main)
    Format settings, Endianness : Big
    Muxing mode                 : DVD-Video
    Duration                    : 19mn 1s
    Bit rate mode               : Constant
    Bit rate                    : 448 Kbps
    Channel(s)                  : 6 channels
    Channel positions           : Front: L C R, Side: L R, LFE
    Sampling rate               : 48.0 KHz
    Compression mode            : Lossy
    Stream size                 : 61.0 MiB (6%)
    
    Audio #2
    ID                          : 189 (0xBD)-129 (0x81)
    Format                      : AC-3
    Format/Info                 : Audio Coding 3
    Mode extension              : CM (complete main)
    Format settings, Endianness : Big
    Muxing mode                 : DVD-Video
    Duration                    : 19mn 1s
    Bit rate mode               : Constant
    Bit rate                    : 224 Kbps
    Channel(s)                  : 2 channels
    Channel positions           : Front: L R
    Sampling rate               : 48.0 KHz
    Compression mode            : Lossy
    Stream size                 : 30.5 MiB (3%)
    
    Menu
    please help video helpers , Thank you .
    Last edited by Auliya90; 5th Dec 2015 at 13:14.
    Quote Quote  
  2. The shot was sped up after being telecined. Field blending was used to smooth out the motion. There's not much you can do about it.
    Quote Quote  
  3. Originally Posted by jagabo View Post
    The shot was sped up after being telecined. Field blending was used to smooth out the motion. There's not much you can do about it.
    Thats fine, i will watch it as it is on my console . thanks for reply
    Quote Quote  



Similar Threads