VideoHelp Forum

Try DVDFab and download streaming video, copy, convert or make Blu-rays,DVDs! Download free trial !
+ Reply to Thread
Results 1 to 3 of 3
Thread
  1. Hi, in encoding with Ripbot 19.2 this error is shown :

    Click image for larger version

Name:	Error-7.jpg
Views:	543
Size:	43.0 KB
ID:	34334

    (avs2yuv.exe has stopped working)

    I installed avisynth and ffdshow, but Ripbot still gives error.
    Quote Quote  
  2. DECEASED
    Join Date
    Jun 2009
    Location
    Heaven
    Search Comp PM
    PERHAPS the actual problem is in RipBot itself
    If I were you, I would send a P.M. to Atak Snajpera, the author of RipBot264.
    And surely you will have to provide much more info...
    Quote Quote  
  3. source file's MI:

    Code:
    General
    Unique ID                   : 244725278789986233051346560410547112541 (0xB81C5FCF4EC7489C87E41BA60E6BCA5D)
    Format                      : Matroska
    Format version              : Version 2
    File size                   : 3.28 GiB
    Duration                    : 48mn 11s
    Overall bit rate            : 9 740 Kbps
    Encoded date                : UTC 2010-03-13 03:23:44
    Writing application         : mkvmerge v3.1.0 ('Happy up here') built on Jan 19 2010 12:09:24
    Writing library             : libebml v0.7.9 + libmatroska v0.8.1
    
    Video
    ID                          : 1
    Format                      : AVC
    Format/Info                 : Advanced Video Codec
    Format profile              : High@L4.1
    Format settings, CABAC      : Yes
    Format settings, ReFrames   : 4 frames
    Codec ID                    : V_MPEG4/ISO/AVC
    Duration                    : 48mn 11s
    Bit rate                    : 8 231 Kbps
    Width                       : 1 920 pixels
    Height                      : 1 080 pixels
    Display aspect ratio        : 16:9
    Frame rate mode             : Constant
    Frame rate                  : 23.976 fps
    Color space                 : YUV
    Chroma subsampling          : 4:2:0
    Bit depth                   : 8 bits
    Scan type                   : Progressive
    Bits/(Pixel*Frame)          : 0.166
    Stream size                 : 2.71 GiB (83%)
    Writing library             : x264 core 88 r1471 1144615
    Encoding settings           : cabac=1 / ref=4 / deblock=1:0:0 / analyse=0x3:0x133 / me=umh / subme=7 / psy=1 / psy_rd=1.00:0.00 / mixed_ref=1 / me_range=16 / chroma_me=1 / trellis=1 / 8x8dct=1 / cqm=0 / deadzone=21,11 / fast_pskip=0 / chroma_qp_offset=-2 / threads=12 / sliced_threads=0 / nr=0 / decimate=1 / mbaff=0 / constrained_intra=0 / bframes=3 / b_pyramid=2 / b_adapt=1 / b_bias=0 / direct=1 / wpredb=1 / wpredp=0 / keyint=240 / keyint_min=24 / scenecut=40 / intra_refresh=0 / rc_lookahead=40 / rc=2pass / mbtree=1 / bitrate=8231 / ratetol=1.0 / qcomp=0.60 / qpmin=10 / qpmax=51 / qpstep=4 / cplxblur=20.0 / qblur=0.5 / ip_ratio=1.40 / aq=1:1.00
    Language                    : English
    Default                     : No
    Forced                      : No
    
    Audio
    ID                          : 2
    Format                      : DTS
    Format/Info                 : Digital Theater Systems
    Mode                        : 16
    Format settings, Endianness : Big
    Codec ID                    : A_DTS
    Duration                    : 48mn 11s
    Bit rate mode               : Constant
    Bit rate                    : 1 509 Kbps
    Channel(s)                  : 6 channels
    Channel positions           : Front: L C R, Side: L R, LFE
    Sampling rate               : 48.0 KHz
    Bit depth                   : 24 bits
    Compression mode            : Lossy
    Stream size                 : 520 MiB (15%)
    Language                    : English
    Default                     : Yes
    Forced                      : No
    
    Text #1
    ID                          : 3
    Format                      : UTF-8
    Codec ID                    : S_TEXT/UTF8
    Codec ID/Info               : UTF-8 Plain Text
    Language                    : English
    Default                     : No
    Forced                      : No
    
    Text #2
    ID                          : 4
    Format                      : UTF-8
    Codec ID                    : S_TEXT/UTF8
    Codec ID/Info               : UTF-8 Plain Text
    Language                    : French
    Default                     : No
    Forced                      : No
    
    Menu
    00:00:00.000                : en:01
    00:04:05.245                : en:02
    00:16:18.811                : en:03
    00:25:56.555                : en:04
    00:39:03.174                : en:05
    00:47:26.677                : en:06
    Quote Quote  



Similar Threads