VideoHelp Forum

Our website is made possible by displaying online advertisements to our visitors. Consider supporting us by disable your adblocker or Try ConvertXtoDVD and convert all your movies to DVD. Free trial ! :)
+ Reply to Thread
Results 1 to 3 of 3
Thread
  1. Member
    Join Date
    Sep 2015
    Location
    Stokcholm
    Search PM
    Hi!

    Is any multimedia server support 4k ? i have plex but it is work when play direct play mp4 but not mkv .


    br

    oka
    Quote Quote  
  2. I'm a MEGA Super Moderator Baldrick's Avatar
    Join Date
    Aug 2000
    Location
    Sweden
    Search Comp PM
    How do you play it? It should work on computers...maybe not streamed to every device.

    Or else try Kodi!
    Quote Quote  
  3. Lone soldier Cauptain's Avatar
    Join Date
    Jan 2006
    Location
    Brazil
    Search Comp PM
    I watch my LG G3 4k (H264) videos via Serviio on my LGTV.

    Code:
    Encoded date                : UTC 2015-09-12 17:55:02
    Tagged date                 : UTC 2015-09-12 17:55:02
    
    Video
    ID                          : 1
    Format                      : AVC
    Format/Info                 : Advanced Video Codec
    Format profile              : High@L5.1
    Format settings, CABAC      : Yes
    Format settings, ReFrames   : 1 frame
    Format settings, GOP        : M=1, N=30
    Codec ID                    : avc1
    Codec ID/Info               : Advanced Video Coding
    Duration                    : 1mn 13s
    Source duration             : 1mn 13s
    Bit rate                    : 30.0 Mbps
    Width                       : 3 840 pixels
    Height                      : 2 160 pixels
    Display aspect ratio        : 16:9
    Rotation                    : 90
    Frame rate mode             : Variable
    Frame rate                  : 29.330 fps
    Minimum frame rate          : 2.944 fps
    Maximum frame rate          : 29.742 fps
    Color space                 : YUV
    Chroma subsampling          : 4:2:0
    Bit depth                   : 8 bits
    Scan type                   : Progressive
    Bits/(Pixel*Frame)          : 0.123
    Stream size                 : 264 MiB (99%)
    Source stream size          : 264 MiB (99%)
    Title                       : VideoHandle
    Language                    : English
    Encoded date                : UTC 2015-09-12 17:55:02
    Tagged date                 : UTC 2015-09-12 17:55:02
    mdhd_Duration               : 73850
    
    Audio
    ID                          : 2
    Format                      : AAC
    Format/Info                 : Advanced Audio Codec
    Format profile              : LC
    Codec ID                    : 40
    Duration                    : 1mn 13s
    Source duration             : 1mn 14s
    Source_Duration_FirstFrame  : 662ms
    Bit rate mode               : Constant
    Bit rate                    : 156 Kbps
    Nominal bit rate            : 96.0 Kbps
    Channel(s)                  : 2 channels
    Channel positions           : Front: L R
    Sampling rate               : 48.0 KHz
    Compression mode            : Lossy
    Stream size                 : 1.36 MiB (1%)
    Source stream size          : 1.36 MiB (1%)
    Its transcode to 1080p, of course.


    Claudio
    Last edited by Cauptain; 30th Sep 2015 at 10:29.
    Quote Quote  



Similar Threads