VideoHelp Forum

Try DVDFab and download streaming video, copy, convert or make Blu-rays,DVDs! Download free trial !
+ Reply to Thread
Results 1 to 6 of 6
Thread
  1. Hi
    someone captured a 720p hdtv video
    when there isn't movement the image quality is ok
    but when there is movement there is kind of ghosting... how could i play it without this blur?
    thanks
    Quote Quote  
  2. aBigMeanie aedipuss's Avatar
    Join Date
    Oct 2005
    Location
    666th portal
    Search Comp PM
    try mediainfoxp to get the specs on the video and post them.
    --
    "a lot of people are better dead" - prisoner KSC2-303
    Quote Quote  
  3. General
    Complete name : D:\DownloadS\2012.mkv
    Format : Matroska
    Format version : Version 2
    File size : 1.39 GiB
    Duration : 1h 15mn
    Overall bit rate mode : Variable
    Overall bit rate : 2 651 Kbps
    Movie name : video
    Encoded date : UTC 2014-12-30 11:19:10
    Writing application : mkvmerge v5.8.0 ('No Sleep / Pillow') built on Sep 2 2012 15:37:04
    Writing library : libebml v1.2.3 + libmatroska v1.3.0

    Video
    ID : 1
    Format : AVC
    Format/Info : Advanced Video Codec
    Format profile : High@L4
    Format settings, CABAC : Yes
    Format settings, ReFrames : 3 frames
    Muxing mode : Header stripping
    Codec ID : V_MPEG4/ISO/AVC
    Duration : 1h 15mn
    Bit rate mode : Variable
    Bit rate : 2 214 Kbps
    Maximum bit rate : 25.0 Mbps
    Width : 1 280 pixels
    Height : 720 pixels
    Display aspect ratio : 16:9
    Frame rate mode : Constant
    Frame rate : 24.000 fps
    Color space : YUV
    Chroma subsampling : 4:2:0
    Bit depth : 8 bits
    Scan type : Progressive
    Bits/(Pixel*Frame) : 0.100
    Stream size : 1.16 GiB (84%)
    Writing library : x264 core 135 r2345 f0c1c53
    Encoding settings : cabac=1 / ref=3 / deblock=1:0:0 / analyse=0x3:0x113 / me=hex / subme=7 / psy=1 / psy_rd=1.00:0.00 / mixed_ref=1 / me_range=16 / chroma_me=1 / trellis=1 / 8x8dct=1 / cqm=0 / deadzone=21,11 / fast_pskip=1 / chroma_qp_offset=-2 / threads=12 / lookahead_threads=2 / sliced_threads=0 / nr=0 / decimate=1 / interlaced=0 / bluray_compat=0 / constrained_intra=0 / bframes=3 / b_pyramid=0 / b_adapt=1 / b_bias=0 / direct=1 / weightb=1 / open_gop=0 / weightp=2 / keyint=240 / keyint_min=24 / scenecut=40 / intra_refresh=0 / rc_lookahead=40 / rc=crf / mbtree=1 / crf=18.0 / qcomp=0.60 / qpmin=0 / qpmax=69 / qpstep=4 / vbv_maxrate=25000 / vbv_bufsize=25000 / crf_max=0.0 / nal_hrd=vbr / ip_ratio=1.40 / aq=1:1.00
    Default : Yes
    Forced : No

    Audio
    ID : 2
    Format : AC-3
    Format/Info : Audio Coding 3
    Mode extension : CM (complete main)
    Format settings, Endianness : Big
    Muxing mode : Header stripping
    Codec ID : A_AC3
    Duration : 1h 15mn
    Bit rate mode : Constant
    Bit rate : 384 Kbps
    Channel(s) : 2 channels
    Channel positions : Front: L R
    Sampling rate : 48.0 KHz
    Compression mode : Lossy
    Stream size : 206 MiB (14%)
    Language : Hebrew
    Default : Yes
    Forced : No

    Text
    ID : 3
    Format : ASS
    Codec ID : S_TEXT/ASS
    Codec ID/Info : Advanced Sub Station Alpha
    Compression mode : Lossless
    Default : Yes
    Forced : No
    Quote Quote  
  4. The ghosting is in the captured video. Possibly a blend deinterlace. There's no real fix.
    Quote Quote  
  5. Originally Posted by jagabo View Post
    The ghosting is in the captured video. Possibly a blend deinterlace. There's no real fix.
    oh man
    ok thanks
    Quote Quote  
  6. If you want to upload a short sample of the source (with moderate motion that shows the problem) someone will take a look at it. Problems like this can sometimes be alleviated. But it will require a lot of learning.
    Last edited by jagabo; 23rd Sep 2015 at 09:16.
    Quote Quote  



Similar Threads