VideoHelp Forum

Try DVDFab and download streaming video, copy, convert or make Blu-rays,DVDs! Download free trial !
+ Reply to Thread
Results 1 to 6 of 6
Thread
  1. Error message: width and height are different between first and this video stream. Both were downloaded from the web and separately with avidemux . When I tried to put the clips together the error shows. Next they were run through a converter to become 480 x 320 mp4 files. This did not help.
    Quote Quote  
  2. Member
    Join Date
    May 2014
    Location
    Memphis TN, US
    Search PM
    It will take a while to guess what your originals look like. It'll also take a while to guess what you mean by "converter". Maybe you need to give a little more info.

    What converter?
    Use the free MediaInfoXp to post data bout the two file types you're trying to work with. mp4 is a container, not a format. All kinds of different videos can fit inside it. Frame size isn't the only factor.
    Last edited by LMotlow; 20th Jul 2015 at 10:35.
    - My sister Ann's brother
    Quote Quote  
  3. Thank you for responding. I didn't have a clue how to get that information. Your link was valuable. The results are here: https://jayaleavitt.tonidoid.com/urljvaluw. It's easy to see they have different dimensions. What tools are available to make them the same?
    Quote Quote  
  4. Member
    Join Date
    May 2014
    Location
    Memphis TN, US
    Search PM
    Sorry, many of us can't use "xlsx" documents, and not many are willing to install software for it. If you will notice, MediaInfoXP has a "Text View" panel. You can select and copy the text directly from that panel to your clipboard and post it in the forum as like any other text. Or you can also export the info as a .txt file and post here.
    - My sister Ann's brother
    Quote Quote  
  5. Format settings, GOP : M=1, N=15
    Codec ID : avc1
    Codec ID/Info : Advanced Video Coding
    Duration : 17mn 14s
    Bit rate : 1 624 Kbps
    Width : 1 440 pixels
    Height : 1 080 pixels
    Display aspect ratio : 4:3

    Frame rate mode : Variable
    Frame rate : 29.970 fps
    Minimum frame rate : 14.986 fps
    Maximum frame rate : 29.971 fps
    Color space : YUV
    Chroma subsampling : 4:2:0
    Bit depth : 8 bits
    Scan type : Progressive
    Bits/(Pixel*Frame) : 0.035
    Stream size : 200 MiB (90%)

    Audio
    ID : 2
    Format : AAC
    Format/Info : Advanced Audio Codec
    Format profile : LC
    Codec ID : 40
    Duration : 17mn 14s
    Bit rate mode : Constant
    Bit rate : 180 Kbps
    Channel(s) : 2 channels
    Channel positions : Front: L R
    Sampling rate : 48.0 KHz
    Compression mode : Lossy
    Stream size : 22.2 MiB (10%)
    Language : unk


    Codec ID : avc1
    Codec ID/Info : Advanced Video Coding
    Duration : 5mn 49s
    Bit rate : 768 Kbps
    Width : 480 pixels
    Height : 320 pixels
    Display aspect ratio : 3:2

    Frame rate mode : Constant
    Frame rate : 25.000 fps
    Color space : YUV
    Chroma subsampling : 4:2:0
    Bit depth : 8 bits
    Scan type : Progressive
    Bits/(Pixel*Frame) : 0.200
    Stream size : 31.8 MiB (85%)
    Writing library : x264 core 140 r2377 1ca7bb9
    Encoding settings : cabac=0 / ref=2 / deblock=1:0:0 / analyse=0x1:0x111 / me=umh / subme=6 / psy=1 / psy_rd=1.00:0.00 / mixed_ref=1 / me_range=16 / chroma_me=1 / trellis=0 / 8x8dct=0 / cqm=0 / deadzone=21,11 / fast_pskip=1 / chroma_qp_offset=-2 / threads=3 / lookahead_threads=1 / sliced_threads=0 / nr=0 / decimate=1 / interlaced=0 / bluray_compat=0 / constrained_intra=0 / bframes=0 / weightp=0 / keyint=250 / keyint_min=25 / scenecut=40 / intra_refresh=0 / rc_lookahead=40 / rc=abr / mbtree=1 / bitrate=768 / ratetol=1.0 / qcomp=0.60 / qpmin=0 / qpmax=69 / qpstep=4 / ip_ratio=1.40 / aq=1:1.00

    Audio
    ID : 2
    Format : MPEG Audio
    Format version : Version 1
    Format profile : Layer 3

    Codec ID : 6B
    Duration : 5mn 49s
    Bit rate mode : Constant
    Bit rate : 128 Kbps
    Channel(s) : 2 channels
    Sampling rate : 44.1 KHz
    Compression mode : Lossy
    Stream size : 5.33 MiB (14%)
    Writing library : LAME3.98r
    Encoding settings : -m s -V 4 -q 3 -lowpass 17 -b 128


    Both the audio and video for one of them have to be reencoded to match the other. I just happened to be on my wife's computer which has Excel. Otherwise I, too, wouldn't have been able to read it.
    Quote Quote  
  6. Member
    Join Date
    May 2014
    Location
    Memphis TN, US
    Search PM
    Thanks for the text. I have Excel too, but 2008 edition or later is needed to read xlsx format, which is incompatible with all previous versions of Microsoft Excel...another reason why later editions of Office have to be given away, everyone hates the newer versions. Amazing how MS managed to dumb it down and make it inscrutably complicated at the same time. Pure genius.

    Good luck to the O.P. at resizing 480x300 to 1080p or vice versa. As is, the frame rates and progressive video are invalid for standard BluRay/AVCHD and are different frame rates to begin with. The audio won't match either, unless converted.

    Anybody up for a PAL/NTSC mismatch?
    Last edited by LMotlow; 21st Jul 2015 at 06:49.
    - My sister Ann's brother
    Quote Quote  



Similar Threads