VideoHelp Forum

Try DVDFab and download streaming video, copy, convert or make Blu-rays,DVDs! Download free trial !
+ Reply to Thread
Results 1 to 29 of 29
Thread
  1. hello guys....am a noob in video encoding......i want to know the configurations and software they used to encode...so that i can also encode.......
    please help me in determining all details used for encoding....Torrent uploaders always upload fimfile as 700 mb bt without losing quality.....how they r uploading...can u please help me to find the following video fileinfo...and alzo suggest me how to make 700 mb rips....am using handbrake...and i am a windows user.....is it possible for me to make 700 rips???please give me configuratin and software use to rip 700 mb....
    any software other than hanbrake

    here s d movie details

    Format : MPEG-4
    Format profile : Base Media
    Codec ID : isom
    File size : 693 MiB
    Duration : 2h 9mn
    Overall bit rate mode : Variable
    Overall bit rate : 749 Kbps
    Encoded date : UTC 2014-12-16 13:16:12
    Tagged date : UTC 2014-12-16 13:16:12

    Video
    ID : 1
    Format : AVC
    Format/Info : Advanced Video Codec
    Format profile : High@L4.1
    Format settings, CABAC : Yes
    Format settings, ReFrames : 3 frames
    Codec ID : avc1
    Codec ID/Info : Advanced Video Coding
    Duration : 2h 9mn
    Bit rate : 646 Kbps
    Maximum bit rate : 12.4 Mbps
    Width : 712 pixels
    Height : 296 pixels
    Display aspect ratio : 2.40:1
    Frame rate mode : Constant
    Frame rate : 23.976 fps
    Color space : YUV
    Chroma subsampling : 4:2:0
    Bit depth : 8 bits
    Scan type : Progressive
    Bits/(Pixel*Frame) : 0.128
    Stream size : 595 MiB (86%)
    Title : Track1
    Writing library : x264 core 142 r2431 ac76440
    Encoding settings : cabac=1 / ref=3 / deblock=1:0:0 / analyse=0x3:0x113 / me=hex / subme=7 / psy=1 / psy_rd=1.00:0.15 / mixed_ref=1 / me_range=16 / chroma_me=1 / trellis=1 / 8x8dct=1 / cqm=0 / deadzone=21,11 / fast_pskip=1 / chroma_qp_offset=-3 / threads=3 / lookahead_threads=1 / sliced_threads=0 / nr=0 / decimate=1 / interlaced=0 / bluray_compat=0 / constrained_intra=0 / bframes=3 / b_pyramid=0 / b_adapt=1 / b_bias=0 / direct=1 / weightb=1 / open_gop=0 / weightp=2 / keyint=240 / keyint_min=23 / scenecut=40 / intra_refresh=0 / rc_lookahead=40 / rc=abr / mbtree=1 / bitrate=646 / ratetol=1.0 / qcomp=0.60 / qpmin=10 / qpmax=51 / qpstep=4 / vbv_maxrate=62500 / vbv_bufsize=78125 / nal_hrd=none / filler=0 / ip_ratio=1.40 / aq=1:1.00
    Encoded date : UTC 2014-12-16 12:19:10
    Tagged date : UTC 2014-12-16 13:16:41

    Audio
    ID : 2
    Format : AAC
    Format/Info : Advanced Audio Codec
    Format profile : HE-AAC / LC
    Codec ID : 40
    Duration : 2h 9mn
    Bit rate mode : Variable
    Bit rate : 102 Kbps
    Maximum bit rate : 122 Kbps
    Channel(s) : 6 channels
    Channel positions : Front: L C R, Side: L R, LFE
    Sampling rate : 48.0 KHz / 24.0 KHz
    Compression mode : Lossy
    Stream size : 94.2 MiB (14%)
    Title : Track1
    Language : Malay
    Encoded date : UTC 2014-12-16 12:45:46
    Tagged date : UTC 2014-12-16 13:16:41

    Text
    ID : 3
    Format : Timed Text
    Codec ID : tx3g
    Duration : 2h 7mn
    Bit rate mode : Variable
    Bit rate : 84 bps
    Stream size : 78.9 KiB (0%)
    Title : English
    Language : Malay
    Encoded date : UTC 2014-12-16 13:16:40
    Tagged date : UTC 2014-12-16 13:16:41
    Format : MPEG-4
    Format profile : Base Media
    Codec ID : isom
    File size : 693 MiB
    Duration : 2h 9mn
    Overall bit rate mode : Variable
    Overall bit rate : 749 Kbps
    Encoded date : UTC 2014-12-16 13:16:12
    Tagged date : UTC 2014-12-16 13:16:12

    Video
    ID : 1
    Format : AVC
    Format/Info : Advanced Video Codec
    Format profile : High@L4.1
    Format settings, CABAC : Yes
    Format settings, ReFrames : 3 frames
    Codec ID : avc1
    Codec ID/Info : Advanced Video Coding
    Duration : 2h 9mn
    Bit rate : 646 Kbps
    Maximum bit rate : 12.4 Mbps
    Width : 712 pixels
    Height : 296 pixels
    Display aspect ratio : 2.40:1
    Frame rate mode : Constant
    Frame rate : 23.976 fps
    Color space : YUV
    Chroma subsampling : 4:2:0
    Bit depth : 8 bits
    Scan type : Progressive
    Bits/(Pixel*Frame) : 0.128
    Stream size : 595 MiB (86%)
    Title : Track1
    Writing library : x264 core 142 r2431 ac76440
    Encoding settings : cabac=1 / ref=3 / deblock=1:0:0 / analyse=0x3:0x113 / me=hex / subme=7 / psy=1 / psy_rd=1.00:0.15 / mixed_ref=1 / me_range=16 / chroma_me=1 / trellis=1 / 8x8dct=1 / cqm=0 / deadzone=21,11 / fast_pskip=1 / chroma_qp_offset=-3 / threads=3 / lookahead_threads=1 / sliced_threads=0 / nr=0 / decimate=1 / interlaced=0 / bluray_compat=0 / constrained_intra=0 / bframes=3 / b_pyramid=0 / b_adapt=1 / b_bias=0 / direct=1 / weightb=1 / open_gop=0 / weightp=2 / keyint=240 / keyint_min=23 / scenecut=40 / intra_refresh=0 / rc_lookahead=40 / rc=abr / mbtree=1 / bitrate=646 / ratetol=1.0 / qcomp=0.60 / qpmin=10 / qpmax=51 / qpstep=4 / vbv_maxrate=62500 / vbv_bufsize=78125 / nal_hrd=none / filler=0 / ip_ratio=1.40 / aq=1:1.00
    Encoded date : UTC 2014-12-16 12:19:10
    Tagged date : UTC 2014-12-16 13:16:41

    Audio
    ID : 2
    Format : AAC
    Format/Info : Advanced Audio Codec
    Format profile : HE-AAC / LC
    Codec ID : 40
    Duration : 2h 9mn
    Bit rate mode : Variable
    Bit rate : 102 Kbps
    Maximum bit rate : 122 Kbps
    Channel(s) : 6 channels
    Channel positions : Front: L C R, Side: L R, LFE
    Sampling rate : 48.0 KHz / 24.0 KHz
    Compression mode : Lossy
    Stream size : 94.2 MiB (14%)
    Title : Track1
    Language : Malay
    Encoded date : UTC 2014-12-16 12:45:46
    Tagged date : UTC 2014-12-16 13:16:41

    Text
    ID : 3
    Format : Timed Text
    Codec ID : tx3g
    Duration : 2h 7mn
    Bit rate mode : Variable
    Bit rate : 84 bps
    Stream size : 78.9 KiB (0%)
    Title : English
    Language : Malay
    Encoded date : UTC 2014-12-16 13:16:40
    Tagged date : UTC 2014-12-16 13:16:41


    help me to rip like torrent uloaders
    Quote Quote  
  2. I'm a MEGA Super Moderator Baldrick's Avatar
    Join Date
    Aug 2000
    Location
    Sweden
    Search Comp PM
    Use vidcoder and you can set the target size directly under settings, video.

    Or calculate the bitrate with a bitrate calculator and set in handbrake.
    Quote Quote  
  3. The x264 encoder settings you posted look very much like the default x264 encoder settings to me. Or use Vidcoder's "High Profile" preset. Other than that, as Baldrick said you need to either specify a file size or bitrate (depending on the program you're using) for 2 pass encoding in order to output a 700MB file. For the example you posted a bitrate of 646kbps was used (for the video).
    Quote Quote  
  4. baldrick wil setting target size decreases my video quality???wat lower bitrate resuts ??torrent uploadersr encoding movies without losing video quality but at the same tym they provide file size around 500-900 mb.....am i alzo able to encode like them???? can u plz tell me the configuration used to encode tat video file (the 1 i mentioned at question)....please help me to rip???

    can i encode videos around 700 mb using vid coder??? wat r the other softwares that i can use t encode
    Quote Quote  
  5. Member hech54's Avatar
    Join Date
    Jul 2001
    Location
    Yank in Europe
    Search Comp PM
    Originally Posted by Sachin Kerala View Post
    torrent uploadersr encoding movies without losing video quality
    No they don't. You have never seen the original quality so how would you know?
    Quote Quote  
  6. The only way to achieve a particular file size is to specify the appropriate bitrate. Obviously if you specify (for example) 600kbps (kilobits per second) and the video is one hour long, the file size will double if you specify 600kbps and it's two hours long. So for the second one you'd specify 300kbps to make it the same size as the first and chances are it'll be much lower quality too. Or if you're using a program jthat lets you specify a file size it'll work the bitrate out for you but the same still applies.

    There's no way an encode with a resolution of 712x296 is going to look as good as the original. It might look okay considering the lower resolution, but it won't look as good.
    Quote Quote  
  7. Member
    Join Date
    Dec 2012
    Location
    The Palatinate
    Search PM
    Originally Posted by Sachin Kerala View Post
    suggest me how to make 700 mb rips
    Just for my understanding: What exactly is it that limits you to 700MB per video? Do you plan to store single encoded video files on overburnt CD-R, like people did in ancient times?
    Quote Quote  
  8. Originally Posted by Sachin Kerala View Post
    help me to rip like torrent uloaders
    Code:
    https://scenerules.org/
    Settings posted are..

    Code:
    --level 4.1 --tune film --bitrate 646 --qpmin 10 --qpmax 51 --vbv-bufsize 78125 --vbv-maxrate 62500
    Last edited by Acımasız; 1st Jul 2015 at 10:38.
    Quote Quote  
  9. Originally Posted by hech54 View Post
    Originally Posted by Sachin Kerala View Post
    torrent uploadersr encoding movies without losing video quality
    No they don't. You have never seen the original quality so how would you know?
    but it lokks like HD...it enough for me
    can u tell me if u know???
    Quote Quote  
  10. Originally Posted by Acımasız View Post
    Originally Posted by Sachin Kerala View Post
    help me to rip like torrent uloaders
    Code:
    https://scenerules.org/
    Settings posted are..

    Code:
    --level 4.1 --tune film --bitrate 646 --qpmin 10 --qpmax 51 --vbv-bufsize 78125 --vbv-maxrate 62500
    which software u r talking about???? r u talking about windows????
    Quote Quote  
  11. Originally Posted by Lowlander View Post
    Originally Posted by Sachin Kerala View Post
    suggest me how to make 700 mb rips
    Just for my understanding: What exactly is it that limits you to 700MB per video? Do you plan to store single encoded video files on overburnt CD-R, like people did in ancient times?
    absolutely no.....i wana make dvd rips in 700 mb so that it is easy for me to store and transfer.....
    and i have so many movies having 3 gb nd i wana convert them to 700-900 mb....
    Quote Quote  
  12. Originally Posted by hello_hello View Post
    The x264 encoder settings you posted look very much like the default x264 encoder settings to me. Or use Vidcoder's "High Profile" preset. Other than that, as Baldrick said you need to either specify a file size or bitrate (depending on the program you're using) for 2 pass encoding in order to output a 700MB file. For the example you posted a bitrate of 646kbps was used (for the video).
    is it an gud alternative to handbrake??wl it lose vdo quality???is high profie in vidcoder giving gud results besed on quality And file size??? can u plz give me a configurtion to rip a movie to 700 - 900 mb without losing quality???
    Quote Quote  
  13. Member hech54's Avatar
    Join Date
    Jul 2001
    Location
    Yank in Europe
    Search Comp PM
    Originally Posted by Sachin Kerala View Post
    can u plz give me a configurtion to rip a movie to 700 - 900 mb without losing quality???
    What part of "IT'S NOT GOING TO HAPPEN" are you having trouble understanding?
    Quote Quote  
  14. Originally Posted by hech54 View Post
    Originally Posted by Sachin Kerala View Post
    can u plz give me a configurtion to rip a movie to 700 - 900 mb without losing quality???
    What part of "IT'S NOT GOING TO HAPPEN" are you having trouble understanding?
    wat u mean dear????you telling its not possible???
    Quote Quote  
  15. Member Cornucopia's Avatar
    Join Date
    Oct 2001
    Location
    Deep in the Heart of Texas
    Search PM
    We mean, it is foolish to think that you are NOT losing quite a good amount of quality doing what you are doing (or what your rip/torrent buddies are doing). Stop fooling yourself (you're not fooling us) - those often look like C*R*A*P!

    Do yourself a favor sometime and do a test: encode the same resized DVD rip to CRF-18 (a common figure for "decent" quality) and to your 2pass 700MB and then A/B them. Most people would clearly see the further quality degradation in your 700MB, and that's comparing to something that ALREADY has been greatly degraded from its source.

    Also, if you are ripping them for your own backup needs, that is one thing. But if you are intent on uploading those to torrent sites also, that is a Warez No-No on this site.

    Scott
    Quote Quote  
  16. Click image for larger version

Name:	Screenshot (3).png
Views:	77
Size:	672.1 KB
ID:	32344 then how thiz file is created???its having 720 pixel and it is a dvd rip..... i alzo only want to create a file like this
    Quote Quote  
  17. Originally Posted by Cornucopia View Post
    We mean, it is foolish to think that you are NOT losing quite a good amount of quality doing what you are doing (or what your rip/torrent buddies are doing). Stop fooling yourself (you're not fooling us) - those often look like C*R*A*P!

    Do yourself a favor sometime and do a test: encode the same resized DVD rip to CRF-18 (a common figure for "decent" quality) and to your 2pass 700MB and then A/B them. Most people would clearly see the further quality degradation in your 700MB, and that's comparing to something that ALREADY has been greatly degraded from its source.

    Also, if you are ripping them for your own backup needs, that is one thing. But if you are intent on uploading those to torrent sites also, that is a Warez No-No on this site.

    Scott

    I earler uploaded a screenshot frm my movie collection.....its 720 pixel and having a 700 mb fie.........i juzt wana create my video like this.......
    Quote Quote  
  18. can anyone tell me whch software they use to rip movie???
    Quote Quote  
  19. Use yax265 to encode and set quality to 32. Leave everything else the same. Search this forum for yax265
    Here is 64 bit versionhttps://drive.google.com/file/d/0B695hmOChptNY3lJU0NGN1pUTDQ/view?usp=sharing
    Last edited by ezcapper; 1st Jul 2015 at 14:03.
    Quote Quote  
  20. Member Cornucopia's Avatar
    Join Date
    Oct 2001
    Location
    Deep in the Heart of Texas
    Search PM
    Could be a lot of things: AnyDVD+whatever, DVDFabHDDecrypter, DVDDecrypter, etc. Ripping it only decrypts & gets from the disc to the harddrive. It is the processing (incl. ITVC, resizing, noise reduction, etc) and the re-encoding that'll get it to what you want. That's more than a few steps (if you want to do it right) and usually more than a few apps (though AVISynth probably figures into it). It's not a "one button click" convert.

    I'm not going to elaborate further, as there are plenty of threads that already do that well, and I'm not convinced about the premise.

    Scott
    Quote Quote  
  21. Member
    Join Date
    May 2014
    Location
    Memphis TN, US
    Search PM
    Originally Posted by Sachin Kerala View Post
    then how thiz file is created???its having 720 pixel and it is a dvd rip..... i alzo only want to create a file like this
    Originally Posted by Sachin Kerala View Post
    I earler uploaded a screenshot frm my movie collection.....its 720 pixel and having a 700 mb fie.........i juzt wana create my video like this.......
    No, I don't think you want your video to "look like" the image you posted. It doesn't display correctly in your KM Player or it's been encoded with the wrong aspect ratio or frame size, and looks as if it's been cropped and resized. The image you posted is distorted and is not even equivalent to a 720x480 frame ratio. It doesn't look like PAL 720x576, either. It isn't even a 16:9 display:
    Click image for larger version

Name:	incorrect AR displayed.jpg
Views:	395
Size:	40.1 KB
ID:	32350

    The movie has an aspect ratio of 2:35:1 or 2:4:1 and should display like this:
    Click image for larger version

Name:	correct AR display.jpg
Views:	411
Size:	45.6 KB
ID:	32349

    On a 16:9 display the picture will have letterbox bars top and bottom. You can't fill a 16:9 display completely with a 2.35:1 movie. On a 16x9 display or media player, the movie will display like this:
    Click image for larger version

Name:	Letterbox16x9 display.jpg
Views:	350
Size:	49.4 KB
ID:	32352

    And as has been noted, if this is warez stuff the thread might be closed.
    Last edited by LMotlow; 1st Jul 2015 at 17:50.
    - My sister Ann's brother
    Quote Quote  
  22. Originally Posted by LMotlow View Post
    Originally Posted by Sachin Kerala View Post
    then how thiz file is created???its having 720 pixel and it is a dvd rip..... i alzo only want to create a file like this
    Originally Posted by Sachin Kerala View Post
    I earler uploaded a screenshot frm my movie collection.....its 720 pixel and having a 700 mb fie.........i juzt wana create my video like this.......
    No, I don't think you want your video to "look like" the image you posted. It doesn't display correctly in your KM Player or it's been encoded with the wrong aspect ratio or frame size, and looks as if it's been cropped and resized. The image you posted is distorted and is not even equivalent to a 720x480 frame ratio. It doesn't look like PAL 720x576, either. It isn't even a 16:9 display:
    Image
    [Attachment 32350 - Click to enlarge]


    The movie has an aspect ratio of 2:35:1 or 2:4:1 and should display like this:
    Image
    [Attachment 32349 - Click to enlarge]


    On a 16:9 display the picture will have letterbox bars top and bottom. You can't fill a 16:9 display completely with a 2.35:1 movie. On a 16x9 display or media player, the movie will display like this:
    Image
    [Attachment 32352 - Click to enlarge]


    And as has been noted, if this is warez stuff the thread might be closed.

    i have changes screen ratio to HDTV.....can u please tell me how to Make 700 mb rips with that quality.....torrent uploadrs r having tat quality at the same time file size about 700 mb....i juzt wana make 700 mb rips
    because i am edited to them....can u please tell me the configuration they used as by looking at media info in my question???
    Quote Quote  
  23. Please anyone tell me Their configuration n wich software they use......
    please tke a look


    Format : AVC
    Video #1
    ID : 1
    Format : AVC
    Format/Info : Advanced Video Codec
    Format profile : High@L4.1
    Format settings, CABAC : Yes
    Format settings, ReFrames : 3 frames
    Codec ID : avc1
    Codec ID/Info : Advanced Video Coding
    Duration : 2h 51mn
    Bit rate : 473 Kbps
    Maximum bit rate : 3 001 Kbps
    Width : 704 pixels
    Height : 296 pixels
    Display aspect ratio : 2.40:1
    Frame rate mode : Constant
    Frame rate : 23.976 fps
    Color space : YUV
    Chroma subsampling : 4:2:0
    Bit depth : 8 bits
    Scan type : Progressive
    Bits/(Pixel*Frame) : 0.095
    Stream size : 579 MiB (83%)
    Title : Track1
    Writing library : x264 core 142 r2431 ac76440
    Encoding settings : cabac=1 / ref=3 / deblock=1:0:0 / analyse=0x3:0x113 / me=hex / subme=7 / psy=1 / psy_rd=1.00:0.15 / mixed_ref=1 / me_range=16 / chroma_me=1 / trellis=1 / 8x8dct=1 / cqm=0 / deadzone=21,11 / fast_pskip=1 / chroma_qp_offset=-3 / threads=3 / lookahead_threads=1 / sliced_threads=0 / nr=0 / decimate=1 / interlaced=0 / bluray_compat=0 / constrained_intra=0 / bframes=3 / b_pyramid=0 / b_adapt=1 / b_bias=0 / direct=1 / weightb=1 / open_gop=0 / weightp=2 / keyint=240 / keyint_min=23 / scenecut=40 / intra_refresh=0 / rc_lookahead=40 / rc=2pass / mbtree=1 / bitrate=473 / ratetol=1.0 / qcomp=0.60 / qpmin=10 / qpmax=51 / qpstep=4 / cplxblur=20.0 / qblur=0.5 / vbv_maxrate=62500 / vbv_bufsize=78125 / nal_hrd=none / filler=0 / ip_ratio=1.40 / aq=1:1.00
    Encoded date : UTC 2014-08-29 14:37:52
    Tagged date : UTC 2014-08-29 18:33:25
    Audio #2
    ID : 1
    Format : AVC
    Format/Info : Advanced Video Codec
    Format profile : High@L4.1
    Stream size : 8 bits


    is this handbrakes config????if yes tell me how to set them
    Quote Quote  
  24. Member
    Join Date
    Dec 2012
    Location
    The Palatinate
    Search PM
    Originally Posted by Sachin Kerala View Post
    can u please tell me the configuration they used as by looking at media info in my question???
    All the parameters the real torrentz uploadz gangsterz used are right there in your very question, for instance under "Encoding settings". Those are x264 command line options, but most if not all of them can be set in Handbrake oder VidCoder.

    Why don't you just take the plethora of advice you already got in this thread, read some additional guides and start your learning curve?
    Quote Quote  
  25. Originally Posted by Lowlander View Post
    Originally Posted by Sachin Kerala View Post
    can u please tell me the configuration they used as by looking at media info in my question???
    All the parameters the real torrentz uploadz gangsterz used are right there in your very question, for instance under "Encoding settings". Those are x264 command line options, but most if not all of them can be set in Handbrake oder VidCoder.

    Why don't you just take the plethora of advice you already got in this thread, read some additional guides and start your learning curve?
    Bro....an u plese telll me by luking into x264 commands....wat r d configuration they hav used????
    i hv already tried by bitrate clculater....the result is awesum......
    Quote Quote  
  26. --preset medium --profile high --level 4.1 --psy-rd 1.0:0.15 --b-pyramid none
    Quote Quote  
  27. Originally Posted by Detmek View Post
    --preset medium --profile high --level 4.1 --psy-rd 1.0:0.15 --b-pyramid none
    WHICH SOFTWARE??HANDBRAKE???

    IF YES...WER CAN I SET --psy-rd 1.0:0.15 --b-pyramid none
    Quote Quote  
  28. Member
    Join Date
    May 2014
    Location
    Memphis TN, US
    Search PM
    Originally Posted by Sachin Kerala View Post
    i have changes screen ratio to HDTV.....
    That's enough for me. I'll let the social workers take it from here.
    - My sister Ann's brother
    Quote Quote  
  29. I promise you, you will get the 700mb file you want if you use yax265 Gui. Drag and drop the file into the GUI and set the quality to 32. Also change the speed from medium to ultrafast and the sound to 128 kbps if you want.
    64 bit version:
    https://drive.google.com/file/d/0B695hmOChptNY3lJU0NGN1pUTDQ/view?usp=sharing
    Quote Quote  



Similar Threads