VideoHelp Forum

Try DVDFab and download streaming video, copy, convert or make Blu-rays,DVDs! Download free trial !
+ Reply to Thread
Results 1 to 8 of 8
Thread
  1. Member
    Join Date
    Mar 2011
    Location
    Paris, France
    Search PM
    Hello

    I'd like to download this video, but neither TubeMaster nor URLSnooper see anything:
    http://www.france4.fr/emissions/tvlab/videos/dynamo_-_le_pilote_02-06-2015_807535

    I also watched the traffic with a web proxy (Privoxy), but hitting the URL returns a 403/Forbidden:
    http://ftvodhdsecz-f.akamaihd.net/z/streaming-adaptatif_france-dom-tom/non-integrales/...632k,934k,.mp4

    Does someone have an idea what else to try?

    Thank you.
    Last edited by yetanotherlogin; 5th Jun 2015 at 07:06.
    Quote Quote  
  2. Originally Posted by yetanotherlogin View Post
    Hello

    I'd like to download this video, but neither TubeMaster nor URLSnooper see anything:
    http://www.france4.fr/emissions/tvlab/videos/dynamo_-_le_pilote_02-06-2015_807535

    I also watched the traffic with a web proxy (Privoxy), but hitting the URL returns a 403/Forbidden:
    http://ftvodhdsecz-f.akamaihd.net/z/streaming-adaptatif_france-dom-tom/non-integrales/...632k,934k,.mp4

    Does someone have an idea what else to try?

    Thank you.
    hi
    you can use youtube-dl but you need have ffmpeg too


    Code:
    youtube-dl   --ffmpeg-location "PATH/OF/YOUR/FFMPEG/BIN"  "http://www.france4.fr/emissions/tvlab/videos/dynamo_-_le_pilote_02-06-2015_807535"
    example

    Code:
    youtube-dl   --ffmpeg-location "C:\ffmpeg-20150421-git-a924b83-win32-static\bin" "http://www.france4.fr/emissions/tvlab/videos/dynamo_-_le_pilote_02-06-2015_807535"
    Quote Quote  
  3. or directly

    with ffmpeg
    Code:
    ffmpeg -i "http://ftvodhdsecz-f.akamaihd.net/i/streaming-adaptatif_france-dom-tom/non-integrales/2015/S22/J5/TVLAB_DYNAMO_PILOTE_WEB-h264-web-,398k,632k,934k,.mp4.csmil/index_2_av.m3u8?null=" -c copy -bsf:a aac_adtstoasc DYNAMO-Le-pilote-NI_80457.mp4
    with livestreamer
    Code:
    livestreamer "hls://http://ftvodhdsecz-f.akamaihd.net/i/streaming-adaptatif_france-dom-tom/non-integrales/2015/S22/J5/TVLAB_DYNAMO_PILOTE_WEB-h264-web-,398k,632k,934k,.mp4.csmil/index_2_av.m3u8?null=" best -o DYNAMO-Le-pilote-NI_80457.ts
    Quote Quote  
  4. Member
    Join Date
    Mar 2011
    Location
    Paris, France
    Search PM
    Thanks a bunch!
    Quote Quote  
  5. Member
    Join Date
    Mar 2011
    Location
    Paris, France
    Search PM
    Hello,

    For some reason, when using ffmpeg to download the following video

    Code:
    ffmpeg -i "https://cloudreplayfrancetv.akamaized.net/a2f88a60bd3e5/222609655_monde_TA.ism/ZXhwPTE1ODExMjk3OTZ+YWNsPSUyZmEyZjg4YTYwYmQzZTUlMmYyMjI2MDk2NTVfbW9uZGVfVEEuaXNtKn5obWFjPTU0NDRkYzQwMTA2Y2RlOTE3ZTVhYmIzOTQzMGQ1MWFhNTMyNWQ3MDg4MmRjNjFjMTQyNmU1OTkxMGRjYmU0ZjY=/222609655_monde_TA-video=768000.m3u8" -vcodec copy -acodec copy output.mp4
    … which ends with this:
    Code:
    …
    ODExMjk3OTZ+YWNsPSUyZmEyZjg4YTYwYmQzZTUlMmYyMjI2MDk2NTVfbW9uZGVfVEEuaXNtKn5obWFjPTU0NDRkYzQwMTA2Y2RlOTE3ZTVhYmIzOTQzMGQ1
    MWFhNTMyNWQ3MDg4MmRjNjFjMTQyNmU1OTkxMGRjYmU0ZjY=/222609655_monde_TA-video=768000-142.ts' for reading
    [hls @ 008109c0] Opening 'crypto+https://cloudreplayfrancetv.akamaized.net/a2f88a60bd3e5/222609655_monde_TA.ism/ZXhwPTE1
    ODExMjk3OTZ+YWNsPSUyZmEyZjg4YTYwYmQzZTUlMmYyMjI2MDk2NTVfbW9uZGVfVEEuaXNtKn5obWFjPTU0NDRkYzQwMTA2Y2RlOTE3ZTVhYmIzOTQzMGQ1
    MWFhNTMyNWQ3MDg4MmRjNjFjMTQyNmU1OTkxMGRjYmU0ZjY=/222609655_monde_TA-video=768000-143.ts' for reading
    frame=35700 fps=146 q=-1.0 Lsize=  342900kB time=00:23:47.96 bitrate=1967.2kbits/s speed=5.82x
    video:342717kB audio:0kB subtitle:0kB other streams:0kB global headers:0kB muxing overhead: 0.053375%
    … I get no sound ("audio:0kB").

    To find the URL, I used Firefox's Video DownloadHelper and tried the line that says "mediaManifest".

    Any idea why the audio is missing?

    Thank you.
    Last edited by yetanotherlogin; 7th Feb 2020 at 15:48.
    Quote Quote  
  6. streamlink "https://cloudreplayfrancetv.akamaized.net/a2f88a60bd3e5/222609655_monde_TA.ism/ZXhwPTE1ODExMzUzNTB+YWNsPSUyZmEyZjg4YTYwYmQzZTUlMm YyMjI2MDk2NTVfbW9uZGVfVEEuaXNtKn5obWFjPTNmODUxMGEy ZDk4ODVmNDBmMmJlNmQ0ZDk1ZjRmZTdhNDRlZGY3Mzg4MjUzNW U0OWY0ZTYxMmU3YWE3ODU5YTY=/master.m3u8?hdnea=exp=1581114350~acl=%2fa2f88a60bd 3e5%2f222609655_monde_TA.ism*~hmac=d6b8ce9ba9cdceb 3db0be6f91f6a0a96eb537fa7144cf98eb5b49154296a694f" best -o video.ts
    Quote Quote  
  7. Member
    Join Date
    Nov 2015
    Location
    Campuchia - Sapoche
    Search Comp PM
    Originally Posted by yetanotherlogin View Post
    Hello,

    … I get no sound ("audio:0kB").

    To find the URL, I used Firefox's Video DownloadHelper and tried the line that says "mediaManifest".

    Any idea why the audio is missing?

    Thank you.
    Try with "master.m3u8" not "768000.m3u8"

    C:\xxxxxxxxxxxxxxxxxxxxxxxxxxxxxxxxxxxxxxxxxxxx>ff mpeg -i https://cloudreplayfran
    cetv.akamaized.net/a2f88a60bd3e5/222609655_monde_TA.ism/ZXhwPTE1ODExMzUxNzh+YWNs
    PSUyZmEyZjg4YTYwYmQzZTUlMmYyMjI2MDk2NTVfbW9uZGVfVE EuaXNtKn5obWFjPTJiZWY0NzVkYTI1
    YzE4YWI5OThmMzRmMGVhMjc3MzlhMzIwN2VmMjk0NGFkZmY5YT czNDliM2E0ZTAzYTM3OTg=/master.
    m3u8
    ?hdnea=exp=1581114178~acl=%2fa2f88a60bd3e5%2f22260 9655_monde_TA.ism*~hmac=de
    5228cc4eec16b8b3138cf3b63399ff6e8eba061fe431394805 eb983e752723
    ffmpeg version 4.2 Copyright (c) 2000-2019 the FFmpeg developers
    built with gcc 9.1.1 (GCC) 20190807

    Duration: 00:23:48.00, start: 10.000000, bitrate: 0 kb/s
    Program 0
    Metadata:
    variant_bitrate : 190000
    Stream #0:0(fr): Audio: aac (LC), 48000 Hz, stereo, fltp, 113 kb/s (default)

    Metadata:
    id3v2_priv.com.apple.streaming.transportStreamTime stamp: \x00\x00\x00\x00\
    x00\x0d\xbb\xa0
    comment : Audio Français
    Stream #0:1: Video: h264 (Constrained Baseline) ([27][0][0][0] / 0x001B), yu
    v420p, 384x216 [SAR 1:1 DAR 16:9], 25 fps, 25 tbr, 90k tbn, 50 tbc
    Metadata:
    variant_bitrate : 190000
    Program 1
    Metadata:
    variant_bitrate : 320000
    Stream #0:0(fr): Audio: aac (LC), 48000 Hz, stereo, fltp, 113 kb/s (default)

    Metadata:
    id3v2_priv.com.apple.streaming.transportStreamTime stamp: \x00\x00\x00\x00\
    x00\x0d\xbb\xa0
    comment : Audio Français
    Stream #0:2: Video: h264 (Main) ([27][0][0][0] / 0x001B), yuv420p, 640x360 [
    SAR 1:1 DAR 16:9], 25 fps, 25 tbr, 90k tbn, 50 tbc
    Metadata:
    variant_bitrate : 320000
    Program 2
    Metadata:
    variant_bitrate : 608000
    Stream #0:0(fr): Audio: aac (LC), 48000 Hz, stereo, fltp, 113 kb/s (default)

    Metadata:
    id3v2_priv.com.apple.streaming.transportStreamTime stamp: \x00\x00\x00\x00\
    x00\x0d\xbb\xa0
    comment : Audio Français
    Stream #0:3: Video: h264 (Main) ([27][0][0][0] / 0x001B), yuv420p, 960x540 [
    SAR 1:1 DAR 16:9], 25 fps, 25 tbr, 90k tbn, 50 tbc
    Metadata:
    variant_bitrate : 608000
    Program 3
    Metadata:
    variant_bitrate : 879000
    Stream #0:0(fr): Audio: aac (LC), 48000 Hz, stereo, fltp, 113 kb/s (default)

    Metadata:
    id3v2_priv.com.apple.streaming.transportStreamTime stamp: \x00\x00\x00\x00\
    x00\x0d\xbb\xa0
    comment : Audio Français
    Stream #0:4: Video: h264 (High) ([27][0][0][0] / 0x001B), yuv420p, 1280x720
    [SAR 1:1 DAR 16:9], 25 fps, 25 tbr, 90k tbn, 50 tbc
    Metadata:
    variant_bitrate : 879000
    Output #0, mp4, to 'test.mp4':
    Metadata:
    encoder : Lavf58.29.100
    Stream #0:0: Video: h264 (High) (avc1 / 0x31637661), yuv420p, 1280x720 [SAR
    1:1 DAR 16:9], q=2-31, 25 fps, 25 tbr, 90k tbn, 90k tbc
    Metadata:
    variant_bitrate : 879000
    Stream #0:1(fr): Audio: aac (LC) (mp4a / 0x6134706D), 48000 Hz, stereo, fltp
    , 113 kb/s (default)
    Metadata:
    id3v2_priv.com.apple.streaming.transportStreamTime stamp: \x00\x00\x00\x00\
    x00\x0d\xbb\xa0
    comment : Audio Français
    Stream mapping:
    Stream #0:4 -> #0:0 (copy)
    Stream #0:0 -> #0:1 (copy)
    Press [q] to stop, [?] for help

    frame= 2498 fps=135 q=-1.0 size= 25344kB time=00:01:39.90 bitrate=2078.2kbits/
    [hls @ 0000000000438f40] Opening 'crypto+https://cloudreplayfrancetv.akamaized.n
    et/a2f88a60bd3e5/222609655_monde_TA.ism/ZXhwPTE1ODExMzUxNzh+YWNsPSUyZmEyZjg4YTYw
    YmQzZTUlMmYyMjI2MDk2NTVfbW9uZGVfVEEuaXNtKn5obWFjPT JiZWY0NzVkYTI1YzE4YWI5OThmMzRm
    MGVhMjc3MzlhMzIwN2VmMjk0NGFkZmY5YTczNDliM2E0ZTAzYT M3OTg=/222609655_monde_TA-audi
    o_fre=64000-11.aac' for reading
    frame= 2501 fps=124 q=-1.0 size= 25344kB time=00:01:40.01 bitrate=2076.0kbits/
    [hls @ 0000000000438f40] Opening 'crypto+https://cloudreplayfrancetv.akamaized.n
    et/a2f88a60bd3e5/222609655_monde_TA.ism/ZXhwPTE1ODExMzUxNzh+YWNsPSUyZmEyZjg4YTYw
    YmQzZTUlMmYyMjI2MDk2NTVfbW9uZGVfVEEuaXNtKn5obWFjPT JiZWY0NzVkYTI1YzE4YWI5OThmMzRm
    MGVhMjc3MzlhMzIwN2VmMjk0NGFkZmY5YTczNDliM2E0ZTAzYT M3OTg=/222609655_monde_TA-vide
    o=768000-12.ts' for reading
    frame= 2748 fps=125 q=-1.0 size= 27648kB time=00:01:49.90 bitrate=2060.7kbits/
    frame= 2749 fps=123 q=-1.0 Lsize= 27788kB time=00:01:49.93 bitrate=2070.7kbits
    /s speed=4.92x
    video:26434kB audio:1324kB subtitle:0kB other streams:0kB global headers:0kB mux
    ing overhead: 0.105891%
    Exiting normally, received signal 2.
    Quote Quote  
  8. Member
    Join Date
    Mar 2011
    Location
    Paris, France
    Search PM
    Thanks much!

    1. In Firefox, install the Video DownloadHelper plug-in
    2. Play the video
    3. Use VDH to find the video's masterManifest
    4. Run
    Code:
    ffmpeg -i "http://masterManifest.url" -o output.mp4
    Quote Quote  



Similar Threads