VideoHelp Forum


Try StreamFab All-in-One and rip streaming video! Or Try DVDFab and copy Blu-rays! or rip iTunes movies!
+ Reply to Thread
Results 1 to 3 of 3
Thread
  1. Hello all,

    As it says in the title, I am seeing the combing effect (as well as some stutter) on my Samsung UE40F6500 smart TV when playing a 1920x1080 50i h.264 (mp4 container) file, and only on this TV, plays perfectly on PC, on another (smaller) Samsung smart TV i own, as well as on a hardware media player (Lacie).

    Taking into account the problem only occurs on the one specific TV, I am assuming there are no problems with the files itself.
    So I was wondering if any of you may have experienced the same issue on Samsung TV's and possibly find a solution to this problem. I have been playing around with the TV's settings like ie. MPEG noise & digital noise filter, as well as update the TV's firmware to the latest version, but unfortunately, to no avail...
    Quote Quote  
  2. Banned
    Join Date
    Oct 2014
    Location
    Northern California
    Search PM
    Are you sure it is actually an interlaced video?

    H.264 in mp4 could be interlaced but it is highly unusual.

    It is more likely the video was badly interlaced before transcoded or reencoded to H.264.

    An mediainfoxp view will give us the information.

    Quote Quote  
  3. I capture these files myself, the files are interlaced as is the source. They are the untouched files that come out of my hardware H.264 encoder and they play fine on any other device I own.

    Code:
    General
    Complete name                            : E:\_capture\Untitled 01.mp4
    Format                                   : MPEG-4
    Format profile                           : QuickTime
    Codec ID                                 : qt
    File size                                : 11.7 MiB
    Duration                                 : 10s 5ms
    Overall bit rate mode                    : Variable
    Overall bit rate                         : 9 807 Kbps
    Encoded date                             : UTC 2015-05-29 10:27:01
    Tagged date                              : UTC 2015-05-29 10:27:12
    Writing library                          : Apple QuickTime
    
    Video
    ID                                       : 1
    Format                                   : AVC
    Format/Info                              : Advanced Video Codec
    Format profile                           : High@L4
    Format settings, CABAC                   : Yes
    Format settings, ReFrames                : 2 frames
    Codec ID                                 : avc1
    Codec ID/Info                            : Advanced Video Coding
    Duration                                 : 10s 5ms
    Duration_LastFrame                       : 5ms
    Bit rate mode                            : Variable
    Bit rate                                 : 9 540 Kbps
    Maximum bit rate                         : 17.1 Mbps
    Width                                    : 1 920 pixels
    Height                                   : 1 080 pixels
    Display aspect ratio                     : 16:9
    Frame rate mode                          : Constant
    Frame rate                               : 25.000 fps
    Color space                              : YUV
    Chroma subsampling                       : 4:2:0
    Bit depth                                : 8 bits
    Scan type                                : Interlaced
    Scan type, store method                  : Interleaved fields
    Scan order                               : Top Field First
    Bits/(Pixel*Frame)                       : 0.184
    Stream size                              : 11.4 MiB (97%)
    Language                                 : English
    Encoded date                             : UTC 2015-05-29 10:27:01
    Tagged date                              : UTC 2015-05-29 10:27:12
    
    Audio
    ID                                       : 2
    Format                                   : AAC
    Format/Info                              : Advanced Audio Codec
    Format profile                           : LC
    Codec ID                                 : 40
    Duration                                 : 10s 5ms
    Bit rate mode                            : Constant
    Bit rate                                 : 256 Kbps
    Channel(s)                               : 2 channels
    Channel positions                        : Front: L R
    Sampling rate                            : 48.0 KHz
    Compression mode                         : Lossy
    Stream size                              : 309 KiB (3%)
    Language                                 : English
    Encoded date                             : UTC 2015-05-29 10:27:01
    Tagged date                              : UTC 2015-05-29 10:27:12
    
    Other
    ID                                       : 3
    Type                                     : Time code
    Format                                   : QuickTime TC
    Duration                                 : 10s 5ms
    Time code of first frame                 : 00:00:00:00
    Time code, striped                       : Yes
    Title                                    : time
    Language                                 : English
    Encoded date                             : UTC 2015-05-29 10:27:01
    Tagged date                              : UTC 2015-05-29 10:27:12
    Quote Quote  



Similar Threads