VideoHelp Forum

Our website is made possible by displaying online advertisements to our visitors. Consider supporting us by disable your adblocker or Try ConvertXtoDVD and convert all your movies to DVD. Free trial ! :)
+ Reply to Thread
Page 9 of 9
FirstFirst ... 7 8 9
Results 241 to 269 of 269
Thread
  1. Member
    Join Date
    Jan 2006
    Location
    Argentina
    Search Comp PM
    I have a problem when I want to convert an .avi file

    I pass the log. It happens with all .avi files that I tried to convert with version 2.0.0.0

    Could you help me? Thank you.
    Image Attached Files
    Quote Quote  
  2. Member
    Join Date
    Feb 2013
    Location
    Toronto, Canada
    Search Comp PM
    RawSourcePlus("F:\Kavanagh QC S01 [1995]\Kavanagh.QC.S1E1.avi", fpsnum=30000, fpsden=(1001))
    or
    RawSourcePlus("F:\Kavanagh QC S01 [1995]\Kavanagh.QC.S1E1.avi", fpsnum=30000, fpsden=1001)
    Is he gone?
    Quote Quote  
  3. Hello, first off , brilliant gui for encoding movies and especially in a batch manner, so its perfect for TV series.
    I downloaded TV series in x265 but could not play them on my TV so i had to encode them to x264 , so i encoded 3 of them in batch made a cup of tea and then it was done.
    However i have an issue with a few movies i downloaded.
    They are all in X265 and they all play fine, video and audio streams.
    When i try to encode them to X264 , the video seems to be fine, but the audio is an issue so the encoding process crashes immediately with a very vague ffmpeg error.
    I have isolated the error a little bit by trying to mux the audio as is, after the video is done, and it works.
    My TV however, doesnt like the audio in the file, so i would normally AAC the audio or MP3.
    I have tried to extracted the audio stream using mkvtoolnix-gui.exe manually and its fine.
    I can then mux the video with the audio, and done.
    It defeats the point of making use of StaxRip which can do this automatically and also for batch purpose.
    How can i help the developer help me here with the error i am getting?
    Quote Quote  
  4. Originally Posted by lankyman View Post
    How can i help the developer help me here with the error i am getting?
    Post the complete StaxRip log and upload a sample of the source file.
    Quote Quote  
  5. Oh, and in case you didn't see:
    Originally Posted by Metti View Post
    stax76 have abandoned StaxRip

    Hi everybody,

    it's time for me to leave StaxRip, shall the gods decide about it's future, I'm out, PEACE!
    Source: https://forum.doom9.org/showthread.php?p=1846737#post1846737

    Revan654 is the only active developer now.

    Revan654's StaxRip Github: https://github.com/Revan654/staxrip/
    Revan654's StaxRip Release Page: https://github.com/Revan654/staxrip/releases
    Revan654's StaxRip Issue Page: https://github.com/Revan654/staxrip/issues
    StaxRip Support Thread: https://forum.doom9.org/showthread.php?t=172068&page=159
    So if you post issues on Revan654's github you can expect the fastest answer.
    Quote Quote  
  6. Originally Posted by sneaker View Post
    Originally Posted by lankyman View Post
    How can i help the developer help me here with the error i am getting?
    Post the complete StaxRip log and upload a sample of the source file.
    Just to make mention , that i have several movies like this which have the same audio inside and they all have the same error.
    I have tried StaxRip 2 and earlier versions, same thing.
    Some how the audio is being extracted and it says 0 channels and then when ffmpeg runs it fails.
    Here is my sample file - 200 megs - https://ufile.io/9tm6k
    Here is my log file:


    ================================================== ==========================

    -------------------------- System Environment --------------------------

    StaxRip : 1.8.2.0
    Windows : Windows 7 Ultimate
    Language : English (United States)
    CPU : Intel(R) Core(TM) i7-2600K CPU @ 3.40GHz
    GPU : Radeon (TM) RX 470 Graphics, Radeon (TM) RX 470 Graphics, Radeon (TM) RX 470 Graphics
    Resolution : 1920 x 1080
    DPI : 96

    ------------------------ MediaInfo Source File ------------------------

    E:\TVShows\Noah2014-80p\Noah (2014) (1080p BluRay x265 10bit Tigole).mkv

    General
    Complete name : E:\TVShows\Noah2014-80p\Noah (2014) (1080p BluRay x265 10bit Tigole).mkv
    Format : Matroska
    Format version : Version 4 / Version 2
    File size : 5.37 GiB
    Duration : 2 h 17 min
    Overall bit rate : 5 578 kb/s
    Movie name : Noah
    Encoded date : UTC 2018-10-08 16:55:39
    Writing application : mkvmerge v26.0.0 ('In The Game') 64-bit
    Writing library : libebml v1.3.6 + libmatroska v1.4.9

    Video
    ID : 1
    Format : HEVC
    Format/Info : High Efficiency Video Coding
    Format profile : Main 10@L4@Main
    Codec ID : V_MPEGH/ISO/HEVC
    Duration : 2 h 17 min
    Bit rate : 4 962 kb/s
    Width : 1 920 pixels
    Height : 1 040 pixels
    Display aspect ratio : 1.85:1
    Frame rate mode : Constant
    Frame rate : 23.976 (24000/1001) FPS
    Color space : YUV
    Chroma subsampling : 4:2:0
    Bit depth : 10 bits
    Bits/(Pixel*Frame) : 0.104
    Stream size : 4.78 GiB (89%)
    Writing library : x265 2.8+70-33a782b23f2c:[Windows][GCC 8.2.0][64 bit] 10bit
    Default : Yes
    Forced : No

    Audio
    ID : 2
    Format : AAC
    Format/Info : Advanced Audio Codec
    Format profile : LC
    Codec ID : A_AAC-2
    Duration : 2 h 17 min
    Bit rate : 576 kb/s
    Channel(s) : 8 channels
    Channel positions : Front: L C R, Side: L R, Back: L R, LFE
    Sampling rate : 48.0 kHz
    Frame rate : 46.875 FPS (1024 SPF)
    Compression mode : Lossy
    Delay relative to video : 20 ms
    Stream size : 575 MiB (10%)
    Language : English
    Default : Yes
    Forced : No

    Text #1
    ID : 3
    Format : VobSub
    Muxing mode : zlib
    Codec ID : S_VOBSUB
    Codec ID/Info : Picture based subtitle format used on DVDs
    Duration : 2 h 9 min
    Bit rate : 6 248 b/s
    Count of elements : 1448
    Stream size : 5.79 MiB (0%)
    Language : English
    Default : No
    Forced : No

    Text #2
    ID : 4
    Format : VobSub
    Muxing mode : zlib
    Codec ID : S_VOBSUB
    Codec ID/Info : Picture based subtitle format used on DVDs
    Duration : 2 h 17 min
    Bit rate : 4 711 b/s
    Count of elements : 941
    Stream size : 4.62 MiB (0%)
    Language : Danish
    Default : No
    Forced : No

    Text #3
    ID : 5
    Format : VobSub
    Muxing mode : zlib
    Codec ID : S_VOBSUB
    Codec ID/Info : Picture based subtitle format used on DVDs
    Duration : 2 h 17 min
    Bit rate : 4 854 b/s
    Count of elements : 953
    Stream size : 4.76 MiB (0%)
    Language : Dutch
    Default : No
    Forced : No

    Text #4
    ID : 6
    Format : VobSub
    Muxing mode : zlib
    Codec ID : S_VOBSUB
    Codec ID/Info : Picture based subtitle format used on DVDs
    Duration : 2 h 17 min
    Bit rate : 4 745 b/s
    Count of elements : 1137
    Stream size : 4.66 MiB (0%)
    Language : Finnish
    Default : No
    Forced : No

    Text #5
    ID : 7
    Format : VobSub
    Muxing mode : zlib
    Codec ID : S_VOBSUB
    Codec ID/Info : Picture based subtitle format used on DVDs
    Duration : 2 h 17 min
    Bit rate : 4 359 b/s
    Count of elements : 1139
    Stream size : 4.28 MiB (0%)
    Language : French
    Default : No
    Forced : No

    Text #6
    ID : 8
    Format : VobSub
    Muxing mode : zlib
    Codec ID : S_VOBSUB
    Codec ID/Info : Picture based subtitle format used on DVDs
    Duration : 2 h 17 min
    Bit rate : 5 218 b/s
    Count of elements : 1102
    Stream size : 5.12 MiB (0%)
    Language : German
    Default : No
    Forced : No

    Text #7
    ID : 9
    Format : VobSub
    Muxing mode : zlib
    Codec ID : S_VOBSUB
    Codec ID/Info : Picture based subtitle format used on DVDs
    Duration : 1 min 25 s
    Bit rate : 9 494 b/s
    Count of elements : 14
    Stream size : 99.5 KiB (0%)
    Title : Forced
    Language : German
    Default : No
    Forced : No

    Text #8
    ID : 10
    Format : VobSub
    Muxing mode : zlib
    Codec ID : S_VOBSUB
    Codec ID/Info : Picture based subtitle format used on DVDs
    Duration : 2 h 17 min
    Bit rate : 4 553 b/s
    Count of elements : 1100
    Stream size : 4.47 MiB (0%)
    Language : Italian
    Default : No
    Forced : No

    Text #9
    ID : 11
    Format : VobSub
    Muxing mode : zlib
    Codec ID : S_VOBSUB
    Codec ID/Info : Picture based subtitle format used on DVDs
    Duration : 2 h 17 min
    Bit rate : 4 584 b/s
    Count of elements : 1100
    Stream size : 4.50 MiB (0%)
    Language : Norwegian Bokmal
    Default : No
    Forced : No

    Text #10
    ID : 12
    Format : VobSub
    Muxing mode : zlib
    Codec ID : S_VOBSUB
    Codec ID/Info : Picture based subtitle format used on DVDs
    Duration : 2 h 17 min
    Bit rate : 4 788 b/s
    Count of elements : 1106
    Stream size : 4.70 MiB (0%)
    Language : Spanish
    Default : No
    Forced : No

    Text #11
    ID : 13
    Format : VobSub
    Muxing mode : zlib
    Codec ID : S_VOBSUB
    Codec ID/Info : Picture based subtitle format used on DVDs
    Duration : 2 h 17 min
    Bit rate : 4 634 b/s
    Count of elements : 1085
    Stream size : 4.55 MiB (0%)
    Language : Swedish
    Default : No
    Forced : No

    Menu
    00 : 00:00.000 : en:Chapter 01
    00 : 04:48.955 : en:Chapter 02
    00 : 08:37.266 : en:Chapter 03
    00 : 12:23.033 : en:Chapter 04
    00 : 18:43.080 : en:Chapter 05
    00 : 23:25.487 : en:Chapter 06
    00 : 32:06.424 : en:Chapter 07
    00 : 37:27.203 : en:Chapter 08
    00 : 42:50.734 : en:Chapter 09
    00 : 54:35.647 : en:Chapter 10
    01 : 01:14.962 : en:Chapter 11
    01 : 03:28.596 : en:Chapter 12
    01 : 09:33.794 : en:Chapter 13
    01 : 19:18.336 : en:Chapter 14
    01 : 21:56.536 : en:Chapter 15
    01 : 29:12.347 : en:Chapter 16
    01 : 34:02.053 : en:Chapter 17
    01 : 40:27.354 : en:Chapter 18
    01 : 49:23.098 : en:Chapter 19
    01 : 55:57.825 : en:Chapter 20
    02 : 00:37.230 : en:Chapter 21
    02 : 11:32.676 : en:Chapter 22

    ------------------ Demux MKV using mkvextract 24.0.0 ------------------

    D:\stax\Apps\MKVToolNix\mkvextract.exe "E:\TVShows\Noah2014-80p\Noah (2014) (1080p BluRay x265 10bit Tigole).mkv" tracks 2:"E:\TVShows\Noah2014-80p\Noah (2014) (10..._temp\Noah (2014) (1080p BluRay x265 10bit Tigole) ID3 English.idx" 3:"E:\TVShows\Noah2014-80p\Noah (2014) (10..._temp\Noah (2014) (1080p BluRay x265 10bit Tigole) ID4 Danish.idx" 4:"E:\TVShows\Noah2014-80p\Noah (2014) (10..._temp\Noah (2014) (1080p BluRay x265 10bit Tigole) ID5 Dutch.idx" 5:"E:\TVShows\Noah2014-80p\Noah (2014) (10..._temp\Noah (2014) (1080p BluRay x265 10bit Tigole) ID6 Finnish.idx" 6:"E:\TVShows\Noah2014-80p\Noah (2014) (10..._temp\Noah (2014) (1080p BluRay x265 10bit Tigole) ID7 French.idx" 7:"E:\TVShows\Noah2014-80p\Noah (2014) (10..._temp\Noah (2014) (1080p BluRay x265 10bit Tigole) ID8 German.idx" 8:"E:\TVShows\Noah2014-80p\Noah (2014) (10..._temp\Noah (2014) (1080p BluRay x265 10bit Tigole) ID9 German Forced.idx" 9:"E:\TVShows\Noah2014-80p\Noah (2014) (10..._temp\Noah (2014) (1080p BluRay x265 10bit Tigole) ID10 Italian.idx" 10:"E:\TVShows\Noah2014-80p\Noah (2014) (10..._temp\Noah (2014) (1080p BluRay x265 10bit Tigole) ID11 Norwegian (Bokmål).idx" 11:"E:\TVShows\Noah2014-80p\Noah (2014) (10..._temp\Noah (2014) (1080p BluRay x265 10bit Tigole) ID12 Spanish.idx" 12:"E:\TVShows\Noah2014-80p\Noah (2014) (10..._temp\Noah (2014) (1080p BluRay x265 10bit Tigole) ID13 Swedish.idx" 1:"E:\TVShows\Noah2014-80p\Noah (2014) (10..._temp\Noah (2014) (1080p BluRay x265 10bit Tigole) ID1 20ms English.aac" --ui-language en

    Extracting track 1 with the CodecID 'A_AAC' to the file 'E:\TVShows\Noah2014-80p\Noah (2014) (10..._temp\Noah (2014) (1080p BluRay x265 10bit Tigole) ID1 20ms English.aac'. Container format: raw AAC file with ADTS headers
    Extracting track 2 with the CodecID 'S_VOBSUB' to the file 'E:\TVShows\Noah2014-80p\Noah (2014) (10..._temp\Noah (2014) (1080p BluRay x265 10bit Tigole) ID3 English.sub'. Container format: VobSubs
    Extracting track 3 with the CodecID 'S_VOBSUB' to the file 'E:\TVShows\Noah2014-80p\Noah (2014) (10..._temp\Noah (2014) (1080p BluRay x265 10bit Tigole) ID4 Danish.sub'. Container format: VobSubs
    Extracting track 4 with the CodecID 'S_VOBSUB' to the file 'E:\TVShows\Noah2014-80p\Noah (2014) (10..._temp\Noah (2014) (1080p BluRay x265 10bit Tigole) ID5 Dutch.sub'. Container format: VobSubs
    Extracting track 5 with the CodecID 'S_VOBSUB' to the file 'E:\TVShows\Noah2014-80p\Noah (2014) (10..._temp\Noah (2014) (1080p BluRay x265 10bit Tigole) ID6 Finnish.sub'. Container format: VobSubs
    Extracting track 6 with the CodecID 'S_VOBSUB' to the file 'E:\TVShows\Noah2014-80p\Noah (2014) (10..._temp\Noah (2014) (1080p BluRay x265 10bit Tigole) ID7 French.sub'. Container format: VobSubs
    Extracting track 7 with the CodecID 'S_VOBSUB' to the file 'E:\TVShows\Noah2014-80p\Noah (2014) (10..._temp\Noah (2014) (1080p BluRay x265 10bit Tigole) ID8 German.sub'. Container format: VobSubs
    Extracting track 8 with the CodecID 'S_VOBSUB' to the file 'E:\TVShows\Noah2014-80p\Noah (2014) (10..._temp\Noah (2014) (1080p BluRay x265 10bit Tigole) ID9 German Forced.sub'. Container format: VobSubs
    Extracting track 9 with the CodecID 'S_VOBSUB' to the file 'E:\TVShows\Noah2014-80p\Noah (2014) (10..._temp\Noah (2014) (1080p BluRay x265 10bit Tigole) ID10 Italian.sub'. Container format: VobSubs
    Extracting track 10 with the CodecID 'S_VOBSUB' to the file 'E:\TVShows\Noah2014-80p\Noah (2014) (10..._temp\Noah (2014) (1080p BluRay x265 10bit Tigole) ID11 Norwegian (Bokmål).sub'. Container format: VobSubs
    Extracting track 11 with the CodecID 'S_VOBSUB' to the file 'E:\TVShows\Noah2014-80p\Noah (2014) (10..._temp\Noah (2014) (1080p BluRay x265 10bit Tigole) ID12 Spanish.sub'. Container format: VobSubs
    Extracting track 12 with the CodecID 'S_VOBSUB' to the file 'E:\TVShows\Noah2014-80p\Noah (2014) (10..._temp\Noah (2014) (1080p BluRay x265 10bit Tigole) ID13 Swedish.sub'. Container format: VobSubs
    Writing the VobSub index file 'E:\TVShows\Noah2014-80p\Noah (2014) (10..._temp\Noah (2014) (1080p BluRay x265 10bit Tigole) ID3 English.idx'.
    Writing the VobSub index file 'E:\TVShows\Noah2014-80p\Noah (2014) (10..._temp\Noah (2014) (1080p BluRay x265 10bit Tigole) ID4 Danish.idx'.
    Writing the VobSub index file 'E:\TVShows\Noah2014-80p\Noah (2014) (10..._temp\Noah (2014) (1080p BluRay x265 10bit Tigole) ID5 Dutch.idx'.
    Writing the VobSub index file 'E:\TVShows\Noah2014-80p\Noah (2014) (10..._temp\Noah (2014) (1080p BluRay x265 10bit Tigole) ID6 Finnish.idx'.
    Writing the VobSub index file 'E:\TVShows\Noah2014-80p\Noah (2014) (10..._temp\Noah (2014) (1080p BluRay x265 10bit Tigole) ID7 French.idx'.
    Writing the VobSub index file 'E:\TVShows\Noah2014-80p\Noah (2014) (10..._temp\Noah (2014) (1080p BluRay x265 10bit Tigole) ID8 German.idx'.
    Writing the VobSub index file 'E:\TVShows\Noah2014-80p\Noah (2014) (10..._temp\Noah (2014) (1080p BluRay x265 10bit Tigole) ID9 German Forced.idx'.
    Writing the VobSub index file 'E:\TVShows\Noah2014-80p\Noah (2014) (10..._temp\Noah (2014) (1080p BluRay x265 10bit Tigole) ID10 Italian.idx'.
    Writing the VobSub index file 'E:\TVShows\Noah2014-80p\Noah (2014) (10..._temp\Noah (2014) (1080p BluRay x265 10bit Tigole) ID11 Norwegian (Bokmål).idx'.
    Writing the VobSub index file 'E:\TVShows\Noah2014-80p\Noah (2014) (10..._temp\Noah (2014) (1080p BluRay x265 10bit Tigole) ID12 Spanish.idx'.
    Writing the VobSub index file 'E:\TVShows\Noah2014-80p\Noah (2014) (10..._temp\Noah (2014) (1080p BluRay x265 10bit Tigole) ID13 Swedish.idx'.

    Start: 10:02:54 PM
    End: 10:06:12 PM
    Duration: 00:03:17

    General
    Complete name : E:\TVShows\Noah2014-80p\Noah (2014) (10..._temp\Noah (2014) (1080p BluRay x265 10bit Tigole) ID1 20ms English.aac
    Format : ADTS
    Format/Info : Audio Data Transport Stream
    File size : 578 MiB
    Overall bit rate mode : Variable

    Audio
    Format : AAC
    Format/Info : Advanced Audio Codec
    Format version : Version 4
    Format profile : LC
    Bit rate mode : Variable
    Channel(s) : channel0
    Sampling rate : 48.0 kHz
    Frame rate : 46.875 FPS (1024 SPF)
    Compression mode : Lossy
    Stream size : 578 MiB (100%)

    ------------- Mux AAC to M4A using MP4Box 0.7.2-DEV-rev79 -------------

    D:\stax\Apps\MP4Box\MP4Box.exe -add "E:\TVShows\Noah2014-80p\Noah (2014) (10..._temp\Noah (2014) (1080p BluRay x265 10bit Tigole) ID1 20ms English.aac:name= " -new "E:\TVShows\Noah2014-80p\Noah (2014) (10..._temp\Noah (2014) (1080p BluRay x265 10bit Tigole) ID1 20ms English.m4a"

    AAC ADTS import - sample rate 48000 - MPEG-4 audio - 0 channel
    Setting up iTunes/iPod file...
    Saving E:\TVShows\Noah2014-80p\Noah (2014) (10..._temp\Noah (2014) (1080p BluRay x265 10bit Tigole) ID1 20ms English.m4a: 0.500 secs Interleaving

    Start: 10:06:12 PM
    End: 10:07:40 PM
    Duration: 00:01:27


    General
    Complete name : E:\TVShows\Noah2014-80p\Noah (2014) (10..._temp\Noah (2014) (1080p BluRay x265 10bit Tigole) ID1 20ms English.m4a
    Format : MPEG-4
    Format profile : Apple audio with iTunes info
    Codec ID : M4A (isom/M4A /mp42)
    File size : 577 MiB
    Duration : 2 h 17 min
    Overall bit rate mode : Variable
    Overall bit rate : 585 kb/s
    Encoded date : UTC 2018-11-18 20:06:12
    Tagged date : UTC 2018-11-18 20:06:12

    Audio
    ID : 1
    Format : AAC
    Format/Info : Advanced Audio Codec
    Codec ID : mp4a-40-2
    Duration : 2 h 17 min
    Bit rate mode : Variable
    Bit rate : 576 kb/s
    Maximum bit rate : 799 kb/s
    Channel(s) : channel0
    Sampling rate : 48.0 kHz
    Frame rate : 46.875 FPS (1024 SPF)
    Compression mode : Lossy
    Stream size : 575 MiB (100%)
    Title :
    Encoded date : UTC 2018-11-18 20:06:12
    Tagged date : UTC 2018-11-18 20:07:04

    -------------- Demux xml chapters using mkvextract 24.0.0 --------------

    D:\stax\Apps\MKVToolNix\mkvextract.exe "E:\TVShows\Noah2014-80p\Noah (2014) (1080p BluRay x265 10bit Tigole).mkv" chapters "E:\TVShows\Noah2014-80p\Noah (2014) (10..._temp\Noah (2014) (1080p BluRay x265 10bit Tigole)_chapters.xml"

    File 'E:\TVShows\Noah2014-80p\Noah (2014) (1080p BluRay x265 10bit Tigole).mkv': container: Matroska
    Track ID 0: video (MPEG-H/HEVC/h.265)
    Track ID 1: audio (AAC)
    Track ID 2: subtitles (VobSub)
    Track ID 3: subtitles (VobSub)
    Track ID 4: subtitles (VobSub)
    Track ID 5: subtitles (VobSub)
    Track ID 6: subtitles (VobSub)
    Track ID 7: subtitles (VobSub)
    Track ID 8: subtitles (VobSub)
    Track ID 9: subtitles (VobSub)
    Track ID 10: subtitles (VobSub)
    Track ID 11: subtitles (VobSub)
    Track ID 12: subtitles (VobSub)
    Chapters: 22 entries

    Start: 10:07:40 PM
    End: 10:07:40 PM
    Duration: 00:00:00

    -------------- Demux ogg chapters using mkvextract 24.0.0 --------------

    D:\stax\Apps\MKVToolNix\mkvextract.exe "E:\TVShows\Noah2014-80p\Noah (2014) (1080p BluRay x265 10bit Tigole).mkv" chapters "E:\TVShows\Noah2014-80p\Noah (2014) (10..._temp\Noah (2014) (1080p BluRay x265 10bit Tigole)_chapters.txt" --simple

    File 'E:\TVShows\Noah2014-80p\Noah (2014) (1080p BluRay x265 10bit Tigole).mkv': container: Matroska
    Track ID 0: video (MPEG-H/HEVC/h.265)
    Track ID 1: audio (AAC)
    Track ID 2: subtitles (VobSub)
    Track ID 3: subtitles (VobSub)
    Track ID 4: subtitles (VobSub)
    Track ID 5: subtitles (VobSub)
    Track ID 6: subtitles (VobSub)
    Track ID 7: subtitles (VobSub)
    Track ID 8: subtitles (VobSub)
    Track ID 9: subtitles (VobSub)
    Track ID 10: subtitles (VobSub)
    Track ID 11: subtitles (VobSub)
    Track ID 12: subtitles (VobSub)
    Chapters: 22 entries

    Start: 10:07:40 PM
    End: 10:07:41 PM
    Duration: 00:00:00

    ----------------------- Indexing using ffmsindex -----------------------

    D:\stax\Apps\Plugins\both\ffms2\ffmsindex.exe "E:\TVShows\Noah2014-80p\Noah (2014) (1080p BluRay x265 10bit Tigole).mkv" "E:\TVShows\Noah2014-80p\Noah (2014) (10..._temp\Noah (2014) (1080p BluRay x265 10bit Tigole).ffindex"

    Writing index... done.

    Start: 10:07:41 PM
    End: 10:10:36 PM
    Duration: 00:02:55

    ----------------- Extract forced subtitles if existing -----------------

    D:\stax\Apps\BDSup2Sub++\bdsup2sub++.exe --forced-only -o "E:\TVShows\Noah2014-80p\Noah (2014) (10..._temp\Noah (2014) (1080p BluRay x265 10bit Tigole) ID10 Italian_forced.idx" "E:\TVShows\Noah2014-80p\Noah (2014) (10..._temp\Noah (2014) (1080p BluRay x265 10bit Tigole) ID10 Italian.idx"

    Noah (2014) (1080p BluRay x265 10bit Tigole) ID10 Italian.idx

    BDSup2Sub++ 1.0.2
    OPTION: Exporting only forced subtitles.
    Converting SUB/IDX
    Loading E:/TVShows/Noah2014-80p/Noah (2014) (10..._temp/Noah (2014) (1080p BluRay x265 10bit Tigole) ID10 Italian.idx
    Detected 13 forced captions.
    Writing E:/TVShows/Noah2014-80p/Noah (2014) (10..._temp\Noah (2014) (1080p BluRay x265 10bit Tigole) ID10 Italian_forced.sub
    Decoding frame 1/13 at offset 00000000
    Decoding frame 2/13 at offset 00001800
    Decoding frame 3/13 at offset 00003000
    Decoding frame 4/13 at offset 00005800
    Decoding frame 5/13 at offset 00006800
    Decoding frame 6/13 at offset 00008000
    Decoding frame 7/13 at offset 0000a800
    Decoding frame 8/13 at offset 0000b800
    Decoding frame 9/13 at offset 0000e000
    Decoding frame 10/13 at offset 00010000
    Decoding frame 11/13 at offset 00013000
    Decoding frame 12/13 at offset 00014800
    Decoding frame 13/13 at offset 00017000
    Writing E:/TVShows/Noah2014-80p/Noah (2014) (10..._temp\Noah (2014) (1080p BluRay x265 10bit Tigole) ID10 Italian_forced.idx
    Conversion of 1 file(s) finished

    Start: 10:10:37 PM
    End: 10:10:38 PM
    Duration: 00:00:00

    ----------------- Extract forced subtitles if existing -----------------

    D:\stax\Apps\BDSup2Sub++\bdsup2sub++.exe --forced-only -o "E:\TVShows\Noah2014-80p\Noah (2014) (10..._temp\Noah (2014) (1080p BluRay x265 10bit Tigole) ID11 Norwegian (Bokmål)_forced.idx" "E:\TVShows\Noah2014-80p\Noah (2014) (10..._temp\Noah (2014) (1080p BluRay x265 10bit Tigole) ID11 Norwegian (Bokmål).idx"

    Noah (2014) (1080p BluRay x265 10bit Tigole) ID11 Norwegian (Bokmål).idx

    BDSup2Sub++ 1.0.2
    OPTION: Exporting only forced subtitles.
    Converting SUB/IDX
    Loading E:/TVShows/Noah2014-80p/Noah (2014) (10..._temp/Noah (2014) (1080p BluRay x265 10bit Tigole) ID11 Norwegian (Bokmål).idx
    WARNING: Illegal language id: nb
    Detected 0 forced captions.
    No forced subtitles found.

    Start: 10:10:38 PM
    End: 10:10:39 PM
    Duration: 00:00:00

    ----------------- Extract forced subtitles if existing -----------------

    D:\stax\Apps\BDSup2Sub++\bdsup2sub++.exe --forced-only -o "E:\TVShows\Noah2014-80p\Noah (2014) (10..._temp\Noah (2014) (1080p BluRay x265 10bit Tigole) ID12 Spanish_forced.idx" "E:\TVShows\Noah2014-80p\Noah (2014) (10..._temp\Noah (2014) (1080p BluRay x265 10bit Tigole) ID12 Spanish.idx"

    Noah (2014) (1080p BluRay x265 10bit Tigole) ID12 Spanish.idx

    BDSup2Sub++ 1.0.2
    OPTION: Exporting only forced subtitles.
    Converting SUB/IDX
    Loading E:/TVShows/Noah2014-80p/Noah (2014) (10..._temp/Noah (2014) (1080p BluRay x265 10bit Tigole) ID12 Spanish.idx
    Detected 14 forced captions.
    Writing E:/TVShows/Noah2014-80p/Noah (2014) (10..._temp\Noah (2014) (1080p BluRay x265 10bit Tigole) ID12 Spanish_forced.sub
    Decoding frame 1/14 at offset 00000000
    Decoding frame 2/14 at offset 00001800
    Decoding frame 3/14 at offset 00003000
    Decoding frame 4/14 at offset 00005800
    Decoding frame 5/14 at offset 00006800
    Decoding frame 6/14 at offset 00008000
    Decoding frame 7/14 at offset 0000a800
    Decoding frame 8/14 at offset 0000b800
    Decoding frame 9/14 at offset 0000e000
    Decoding frame 10/14 at offset 00010000
    Decoding frame 11/14 at offset 00013000
    Decoding frame 12/14 at offset 00014800
    Decoding frame 13/14 at offset 00017000
    Decoding frame 14/14 at offset 00043800
    Writing E:/TVShows/Noah2014-80p/Noah (2014) (10..._temp\Noah (2014) (1080p BluRay x265 10bit Tigole) ID12 Spanish_forced.idx
    Conversion of 1 file(s) finished

    Start: 10:10:39 PM
    End: 10:10:39 PM
    Duration: 00:00:00

    ----------------- Extract forced subtitles if existing -----------------

    D:\stax\Apps\BDSup2Sub++\bdsup2sub++.exe --forced-only -o "E:\TVShows\Noah2014-80p\Noah (2014) (10..._temp\Noah (2014) (1080p BluRay x265 10bit Tigole) ID13 Swedish_forced.idx" "E:\TVShows\Noah2014-80p\Noah (2014) (10..._temp\Noah (2014) (1080p BluRay x265 10bit Tigole) ID13 Swedish.idx"

    Noah (2014) (1080p BluRay x265 10bit Tigole) ID13 Swedish.idx

    BDSup2Sub++ 1.0.2
    OPTION: Exporting only forced subtitles.
    Converting SUB/IDX
    Loading E:/TVShows/Noah2014-80p/Noah (2014) (10..._temp/Noah (2014) (1080p BluRay x265 10bit Tigole) ID13 Swedish.idx
    Detected 0 forced captions.
    No forced subtitles found.

    Start: 10:10:39 PM
    End: 10:10:40 PM
    Duration: 00:00:00

    ----------------- Extract forced subtitles if existing -----------------

    D:\stax\Apps\BDSup2Sub++\bdsup2sub++.exe --forced-only -o "E:\TVShows\Noah2014-80p\Noah (2014) (10..._temp\Noah (2014) (1080p BluRay x265 10bit Tigole) ID3 English_forced.idx" "E:\TVShows\Noah2014-80p\Noah (2014) (10..._temp\Noah (2014) (1080p BluRay x265 10bit Tigole) ID3 English.idx"

    Noah (2014) (1080p BluRay x265 10bit Tigole) ID3 English.idx

    BDSup2Sub++ 1.0.2
    OPTION: Exporting only forced subtitles.
    Converting SUB/IDX
    Loading E:/TVShows/Noah2014-80p/Noah (2014) (10..._temp/Noah (2014) (1080p BluRay x265 10bit Tigole) ID3 English.idx
    Detected 0 forced captions.
    No forced subtitles found.

    Start: 10:10:40 PM
    End: 10:10:40 PM
    Duration: 00:00:00

    ----------------- Extract forced subtitles if existing -----------------

    D:\stax\Apps\BDSup2Sub++\bdsup2sub++.exe --forced-only -o "E:\TVShows\Noah2014-80p\Noah (2014) (10..._temp\Noah (2014) (1080p BluRay x265 10bit Tigole) ID4 Danish_forced.idx" "E:\TVShows\Noah2014-80p\Noah (2014) (10..._temp\Noah (2014) (1080p BluRay x265 10bit Tigole) ID4 Danish.idx"

    Noah (2014) (1080p BluRay x265 10bit Tigole) ID4 Danish.idx

    BDSup2Sub++ 1.0.2
    OPTION: Exporting only forced subtitles.
    Converting SUB/IDX
    Loading E:/TVShows/Noah2014-80p/Noah (2014) (10..._temp/Noah (2014) (1080p BluRay x265 10bit Tigole) ID4 Danish.idx
    Detected 0 forced captions.
    No forced subtitles found.

    Start: 10:10:40 PM
    End: 10:10:40 PM
    Duration: 00:00:00

    ----------------- Extract forced subtitles if existing -----------------

    D:\stax\Apps\BDSup2Sub++\bdsup2sub++.exe --forced-only -o "E:\TVShows\Noah2014-80p\Noah (2014) (10..._temp\Noah (2014) (1080p BluRay x265 10bit Tigole) ID5 Dutch_forced.idx" "E:\TVShows\Noah2014-80p\Noah (2014) (10..._temp\Noah (2014) (1080p BluRay x265 10bit Tigole) ID5 Dutch.idx"

    Noah (2014) (1080p BluRay x265 10bit Tigole) ID5 Dutch.idx

    BDSup2Sub++ 1.0.2
    OPTION: Exporting only forced subtitles.
    Converting SUB/IDX
    Loading E:/TVShows/Noah2014-80p/Noah (2014) (10..._temp/Noah (2014) (1080p BluRay x265 10bit Tigole) ID5 Dutch.idx
    Detected 0 forced captions.
    No forced subtitles found.

    Start: 10:10:41 PM
    End: 10:10:41 PM
    Duration: 00:00:00

    ----------------- Extract forced subtitles if existing -----------------

    D:\stax\Apps\BDSup2Sub++\bdsup2sub++.exe --forced-only -o "E:\TVShows\Noah2014-80p\Noah (2014) (10..._temp\Noah (2014) (1080p BluRay x265 10bit Tigole) ID6 Finnish_forced.idx" "E:\TVShows\Noah2014-80p\Noah (2014) (10..._temp\Noah (2014) (1080p BluRay x265 10bit Tigole) ID6 Finnish.idx"

    Noah (2014) (1080p BluRay x265 10bit Tigole) ID6 Finnish.idx

    BDSup2Sub++ 1.0.2
    OPTION: Exporting only forced subtitles.
    Converting SUB/IDX
    Loading E:/TVShows/Noah2014-80p/Noah (2014) (10..._temp/Noah (2014) (1080p BluRay x265 10bit Tigole) ID6 Finnish.idx
    Detected 0 forced captions.
    No forced subtitles found.

    Start: 10:10:41 PM
    End: 10:10:41 PM
    Duration: 00:00:00

    ----------------- Extract forced subtitles if existing -----------------

    D:\stax\Apps\BDSup2Sub++\bdsup2sub++.exe --forced-only -o "E:\TVShows\Noah2014-80p\Noah (2014) (10..._temp\Noah (2014) (1080p BluRay x265 10bit Tigole) ID7 French_forced.idx" "E:\TVShows\Noah2014-80p\Noah (2014) (10..._temp\Noah (2014) (1080p BluRay x265 10bit Tigole) ID7 French.idx"

    Noah (2014) (1080p BluRay x265 10bit Tigole) ID7 French.idx

    BDSup2Sub++ 1.0.2
    OPTION: Exporting only forced subtitles.
    Converting SUB/IDX
    Loading E:/TVShows/Noah2014-80p/Noah (2014) (10..._temp/Noah (2014) (1080p BluRay x265 10bit Tigole) ID7 French.idx
    Detected 15 forced captions.
    Writing E:/TVShows/Noah2014-80p/Noah (2014) (10..._temp\Noah (2014) (1080p BluRay x265 10bit Tigole) ID7 French_forced.sub
    Decoding frame 1/15 at offset 00000000
    Decoding frame 2/15 at offset 00002000
    Decoding frame 3/15 at offset 00003800
    Decoding frame 4/15 at offset 00006000
    Decoding frame 5/15 at offset 00007000
    Decoding frame 6/15 at offset 00008800
    Decoding frame 7/15 at offset 0000b000
    Decoding frame 8/15 at offset 0000c000
    Decoding frame 9/15 at offset 0000e800
    Decoding frame 10/15 at offset 00010800
    Decoding frame 11/15 at offset 00013800
    Decoding frame 12/15 at offset 00015000
    Decoding frame 13/15 at offset 00017800
    Decoding frame 14/15 at offset 00018800
    Decoding frame 15/15 at offset 00047000
    Writing E:/TVShows/Noah2014-80p/Noah (2014) (10..._temp\Noah (2014) (1080p BluRay x265 10bit Tigole) ID7 French_forced.idx
    Conversion of 1 file(s) finished

    Start: 10:10:41 PM
    End: 10:10:42 PM
    Duration: 00:00:00

    ----------------- Extract forced subtitles if existing -----------------

    D:\stax\Apps\BDSup2Sub++\bdsup2sub++.exe --forced-only -o "E:\TVShows\Noah2014-80p\Noah (2014) (10..._temp\Noah (2014) (1080p BluRay x265 10bit Tigole) ID8 German_forced.idx" "E:\TVShows\Noah2014-80p\Noah (2014) (10..._temp\Noah (2014) (1080p BluRay x265 10bit Tigole) ID8 German.idx"

    Noah (2014) (1080p BluRay x265 10bit Tigole) ID8 German.idx

    BDSup2Sub++ 1.0.2
    OPTION: Exporting only forced subtitles.
    Converting SUB/IDX
    Loading E:/TVShows/Noah2014-80p/Noah (2014) (10..._temp/Noah (2014) (1080p BluRay x265 10bit Tigole) ID8 German.idx
    Detected 14 forced captions.
    Writing E:/TVShows/Noah2014-80p/Noah (2014) (10..._temp\Noah (2014) (1080p BluRay x265 10bit Tigole) ID8 German_forced.sub
    Decoding frame 1/14 at offset 00000000
    Decoding frame 2/14 at offset 00001800
    Decoding frame 3/14 at offset 00003000
    Decoding frame 4/14 at offset 00006000
    Decoding frame 5/14 at offset 00007000
    Decoding frame 6/14 at offset 00008000
    Decoding frame 7/14 at offset 0000a000
    Decoding frame 8/14 at offset 0000d000
    Decoding frame 9/14 at offset 0000e000
    Decoding frame 10/14 at offset 00010800
    Decoding frame 11/14 at offset 00013000
    Decoding frame 12/14 at offset 00016000
    Decoding frame 13/14 at offset 00017800
    Decoding frame 14/14 at offset 0001a800
    Writing E:/TVShows/Noah2014-80p/Noah (2014) (10..._temp\Noah (2014) (1080p BluRay x265 10bit Tigole) ID8 German_forced.idx
    Conversion of 1 file(s) finished

    Start: 10:10:42 PM
    End: 10:10:42 PM
    Duration: 00:00:00

    ----------------- Extract forced subtitles if existing -----------------

    D:\stax\Apps\BDSup2Sub++\bdsup2sub++.exe --forced-only -o "E:\TVShows\Noah2014-80p\Noah (2014) (10..._temp\Noah (2014) (1080p BluRay x265 10bit Tigole) ID9 German Forced_forced.idx" "E:\TVShows\Noah2014-80p\Noah (2014) (10..._temp\Noah (2014) (1080p BluRay x265 10bit Tigole) ID9 German Forced.idx"

    Noah (2014) (1080p BluRay x265 10bit Tigole) ID9 German Forced.idx

    BDSup2Sub++ 1.0.2
    OPTION: Exporting only forced subtitles.
    Converting SUB/IDX
    Loading E:/TVShows/Noah2014-80p/Noah (2014) (10..._temp/Noah (2014) (1080p BluRay x265 10bit Tigole) ID9 German Forced.idx
    Detected 14 forced captions.
    Writing E:/TVShows/Noah2014-80p/Noah (2014) (10..._temp\Noah (2014) (1080p BluRay x265 10bit Tigole) ID9 German Forced_forced.sub
    Decoding frame 1/14 at offset 00000000
    Decoding frame 2/14 at offset 00001800
    Decoding frame 3/14 at offset 00003000
    Decoding frame 4/14 at offset 00006000
    Decoding frame 5/14 at offset 00007000
    Decoding frame 6/14 at offset 00008000
    Decoding frame 7/14 at offset 0000a000
    Decoding frame 8/14 at offset 0000d000
    Decoding frame 9/14 at offset 0000e000
    Decoding frame 10/14 at offset 00010800
    Decoding frame 11/14 at offset 00013000
    Decoding frame 12/14 at offset 00016000
    Decoding frame 13/14 at offset 00017800
    Decoding frame 14/14 at offset 0001a800
    Writing E:/TVShows/Noah2014-80p/Noah (2014) (10..._temp\Noah (2014) (1080p BluRay x265 10bit Tigole) ID9 German Forced_forced.idx
    Conversion of 1 file(s) finished

    Start: 10:10:42 PM
    End: 10:10:43 PM
    Duration: 00:00:00

    --------------------------- AviSynth Script ---------------------------

    LoadPlugin("D:\stax\Apps\Plugins\both\ffms2\ffms2. dll")
    FFVideoSource("E:\TVShows\Noah2014-80p\Noah (2014) (1080p BluRay x265 10bit Tigole).mkv", colorspace = "YV12", \
    cachefile = "E:\TVShows\Noah2014-80p\Noah (2014) (10..._temp\Noah (2014) (1080p BluRay x265 10bit Tigole).ffindex")

    -------------------------- Script Properties --------------------------

    Source Frame Count : 198357
    Source Frame Rate : 23.976024
    Source Duration : 02:17:53.1400000
    Target Frame Count : 198357
    Target Frame Rate : 23.976024
    Target Duration : 02:17:53.1400000

    ----------------------- MediaInfo Audio Source 1 -----------------------

    General
    Complete name : E:\TVShows\Noah2014-80p\Noah (2014) (10..._temp\Noah (2014) (1080p BluRay x265 10bit Tigole) ID1 20ms English.m4a
    Format : MPEG-4
    Format profile : Apple audio with iTunes info
    Codec ID : M4A (isom/M4A /mp42)
    File size : 577 MiB
    Duration : 2 h 17 min
    Overall bit rate mode : Variable
    Overall bit rate : 585 kb/s
    Encoded date : UTC 2018-11-18 20:06:12
    Tagged date : UTC 2018-11-18 20:06:12

    Audio
    ID : 1
    Format : AAC
    Format/Info : Advanced Audio Codec
    Codec ID : mp4a-40-2
    Duration : 2 h 17 min
    Bit rate mode : Variable
    Bit rate : 576 kb/s
    Maximum bit rate : 799 kb/s
    Channel(s) : channel0
    Sampling rate : 48.0 kHz
    Frame rate : 46.875 FPS (1024 SPF)
    Compression mode : Lossy
    Stream size : 575 MiB (100%)
    Title :
    Encoded date : UTC 2018-11-18 20:06:12
    Tagged date : UTC 2018-11-18 20:07:04

    ------------------ Error Find Gain 1 using ffmpeg 4.0 ------------------

    Find Gain 1 using ffmpeg 4.0 failed with exit code: 1 (0x1)

    The exit code might be a system error code: STATUS_WAIT_1

    The exit code might be a system error code: Incorrect function.


    --------------------- Find Gain 1 using ffmpeg 4.0 ---------------------

    D:\stax\Apps\ffmpeg\ffmpeg.exe -i "E:\TVShows\Noah2014-80p\Noah (2014) (10..._temp\Noah (2014) (1080p BluRay x265 10bit Tigole) ID1 20ms English.m4a" -sn -vn -hide_banner -af volumedetect -f null NUL

    [aac @ 00000000004b5900] Sample rate index in program config element does not match the sample rate index configured by the container.
    [aac @ 00000000004b5900] decode_pce: Input buffer exhausted before END element found
    [mov,mp4,m4a,3gp,3g2,mj2 @ 00000000004a2e00] Failed to open codec in avformat_find_stream_info
    [aac @ 00000000004b5900] Sample rate index in program config element does not match the sample rate index configured by the container.
    [aac @ 00000000004b5900] decode_pce: Input buffer exhausted before END element found
    [mov,mp4,m4a,3gp,3g2,mj2 @ 00000000004a2e00] Could not find codec parameters for stream 0 (Audio: aac (mp4a / 0x6134706D), 48000 Hz, 0 channels, fltp, 583 kb/s): unspecified number of channels
    Consider increasing the value for the 'analyzeduration' and 'probesize' options
    Input #0, mov,mp4,m4a,3gp,3g2,mj2, from 'E:\TVShows\Noah2014-80p\Noah (2014) (10..._temp\Noah (2014) (1080p BluRay x265 10bit Tigole) ID1 20ms English.m4a':
    Metadata:
    major_brand : M4A
    minor_version : 1
    compatible_brands: isomM4A mp42
    creation_time : 2018-11-18T20:06:12.000000Z
    Duration: 02:17:53.13, start: 0.000000, bitrate: 584 kb/s
    Stream #0:0(und): Audio: aac (mp4a / 0x6134706D), 48000 Hz, 0 channels, fltp, 583 kb/s (default)
    Metadata:
    creation_time : 2018-11-18T20:06:12.000000Z
    handler_name :
    [aac @ 00000000004e0a40] Sample rate index in program config element does not match the sample rate index configured by the container.
    [aac @ 00000000004e0a40] decode_pce: Input buffer exhausted before END element found
    Stream mapping:
    Stream #0:0 -> #0:0 (aac (native) -> pcm_s16le (native))
    Error while opening decoder for input stream #0:0 : Operation not permitted

    --------------------- Find Gain 1 using ffmpeg 4.0 ---------------------

    D:\stax\Apps\ffmpeg\ffmpeg.exe -i "E:\TVShows\Noah2014-80p\Noah (2014) (10..._temp\Noah (2014) (1080p BluRay x265 10bit Tigole) ID1 20ms English.m4a" -sn -vn -hide_banner -af volumedetect -f null NUL

    [aac @ 00000000004b5900] Sample rate index in program config element does not match the sample rate index configured by the container.
    [aac @ 00000000004b5900] decode_pce: Input buffer exhausted before END element found
    [mov,mp4,m4a,3gp,3g2,mj2 @ 00000000004a2e00] Failed to open codec in avformat_find_stream_info
    [aac @ 00000000004b5900] Sample rate index in program config element does not match the sample rate index configured by the container.
    [aac @ 00000000004b5900] decode_pce: Input buffer exhausted before END element found
    [mov,mp4,m4a,3gp,3g2,mj2 @ 00000000004a2e00] Could not find codec parameters for stream 0 (Audio: aac (mp4a / 0x6134706D), 48000 Hz, 0 channels, fltp, 583 kb/s): unspecified number of channels
    Consider increasing the value for the 'analyzeduration' and 'probesize' options
    Input #0, mov,mp4,m4a,3gp,3g2,mj2, from 'E:\TVShows\Noah2014-80p\Noah (2014) (10..._temp\Noah (2014) (1080p BluRay x265 10bit Tigole) ID1 20ms English.m4a':
    Metadata:
    major_brand : M4A
    minor_version : 1
    compatible_brands: isomM4A mp42
    creation_time : 2018-11-18T20:06:12.000000Z
    Duration: 02:17:53.13, start: 0.000000, bitrate: 584 kb/s
    Stream #0:0(und): Audio: aac (mp4a / 0x6134706D), 48000 Hz, 0 channels, fltp, 583 kb/s (default)
    Metadata:
    creation_time : 2018-11-18T20:06:12.000000Z
    handler_name :
    [aac @ 00000000004e0a40] Sample rate index in program config element does not match the sample rate index configured by the container.
    [aac @ 00000000004e0a40] decode_pce: Input buffer exhausted before END element found
    Stream mapping:
    Stream #0:0 -> #0:0 (aac (native) -> pcm_s16le (native))
    Error while opening decoder for input stream #0:0 : Operation not permitted

    Start: 10:18:31 PM
    End: 10:18:34 PM
    Duration: 00:00:02

    ------------------- Video encoding using VCEEnc 3.06 -------------------

    D:\stax\Apps\VCEEnc\VCEEncC64.exe --codec hevc --cqp 22:24:27 -i "E:\TVShows\Noah2014-80p\Noah (2014) (10..._temp\Noah (2014) (1080p BluRay x265 10bit Tigole)_new.avs" -o "E:\TVShows\Noah2014-80p\Noah (2014) (10..._temp\Noah (2014) (1080p BluRay x265 10bit Tigole)_new_out.hevc"

    Start: 10:18:31 PM
    End: 10:18:34 PM
    Duration: 00:00:03

    ================================================== ==================================
    Last edited by lankyman; 18th Nov 2018 at 14:51.
    Quote Quote  
  7. Seems to be a known mkvextract problem. I've sent the author the new sample, hopefully he is interested again in fixing. Issue is already known for 9 months ...

    https://gitlab.com/mbunkus/mkvtoolnix/issues/2205
    Last edited by sneaker; 18th Nov 2018 at 15:24.
    Quote Quote  
  8. Originally Posted by sneaker View Post
    Seems to be a known mkvextract problem. I've sent the author the new sample, hopefully he is interested again in fixing. Issue is already known for 9 months ...

    https://gitlab.com/mbunkus/mkvtoolnix/issues/2205
    Strange thing is when i use MKVToolNix GUI v28.2.0 and manually extract/demux the AAC stream , 500 odd megs big, it plays fine in windows media player classic home cinema, and mediainfo shows 8 channels.

    It is crazy, so are we saying that on the commend line, some how, it is not demuxing properly?
    Quote Quote  
  9. MKVToolNix GUI does not have a demuxing component. It muxes to mkv using mkvmerge.exe. In your workflow StaxRip uses mkvextract.exe to extract the AAC audio to ADTS AAC format (i.e. not mkv).
    Quote Quote  
  10. Originally Posted by sneaker View Post
    MKVToolNix GUI does not have a demuxing component. It muxes to mkv using mkvmerge.exe. In your workflow StaxRip uses mkvextract.exe to extract the AAC audio to ADTS AAC format (i.e. not mkv).

    So perhaps a new mkvextract tool can be investigated or a change to StaxRip to rather use ffmpeg.
    I would love to re-encode my movies but i am not in the mood to manually do them .
    This is why i use StaxRip it is pretty decent for automation.

    I dont know of any other tools that provide AMD GPU support.
    Quote Quote  
  11. Yeah, switching to ffmpeg for the extraction would easily work around the problem. Could even skip that step entirely to save time.
    Quote Quote  
  12. Originally Posted by sneaker View Post
    Seems to be a known mkvextract problem. I've sent the author the new sample, hopefully he is interested again in fixing. Issue is already known for 9 months ...

    https://gitlab.com/mbunkus/mkvtoolnix/issues/2205
    Issue is fixed in MKVToolNix 29.0.0.
    Quote Quote  
  13. I am new her and I could use some help with staxrip.
    I do not even know how to explain it, but I will give it a good try.

    I'm trying to create a template for automatic workflow

    The original source have this on the subs name https://i.imgur.com/FCC74wE.png
    I want to transfer the name without manually typing it all the time in here https://i.imgur.com/DmW6cJo.png
    The pictures are just an example. I know I can save names on the subs in the template, but if more or different names are there it will not work.

    Is it possible to transfer the naming by using a macro or command line or script or something into the new encoded file automatic?

    Thanks in advance
    Last edited by Crash82; 8th Dec 2018 at 15:51.
    Quote Quote  
  14. Hello.

    I have a mining rig that has 13x1080 Ti, and I need to convert my entire video library into HEVC, so I'm going to use this rig for such a purpose.
    How do I specify the GPU that is going to be used for the conversion?
    Quote Quote  
  15. Member
    Join Date
    Jul 2019
    Location
    Singapore
    Search Comp PM
    Hi, I'm having an issue with VapourSynth and StaxRip. Whenever I use VapourSynth, any video files I put into Staxrip would cause it to crash after demuxing. There are no error logs or any errors that popup. Staxrip just closes. I have tried reinstalling Python, VapourSynth and used different versions of Staxrip but same result. I have another desktop and it does not have any issues.
    Quote Quote  
  16. Member stax76's Avatar
    Join Date
    Nov 2009
    Location
    Germany
    Search PM
    Originally Posted by Kidsnd274 View Post
    Hi, I'm having an issue with VapourSynth and StaxRip. Whenever I use VapourSynth, any video files I put into Staxrip would cause it to crash after demuxing. There are no error logs or any errors that popup. Staxrip just closes. I have tried reinstalling Python, VapourSynth and used different versions of Staxrip but same result. I have another desktop and it does not have any issues.
    Whenever error handling fails it's a very difficult situation. I would guess it's not a staxrip problem but VapourSynth is not working in general.
    Quote Quote  
  17. Why not to create a script to find out if something is going bad in Vapoursynth and read that error on screen. Choose your source_path in the script below. Or you can change source plugin if using different.
    Code:
    import vapoursynth as vs
    
    source_path = r'D:\your path to your clip\my_clip.mp4'
    
    def make_blank_clip(err_text):
        err_clip = vs.core.std.BlankClip(format=vs.RGB24)
        err_clip = vs.core.text.Text(err_clip, err_text)
        return err_clip
    
    #catching error if something wrong with source plugin or loading clip line
    try:
        clip = vs.core.ffms2.Source(source_path)
    except Exception as err_text:
        #make clip with error message text
        clip = make_blank_clip(str(err_text))
    
    #catching an error if a frame is requested
    try:
        frame = clip.get_frame(0)
    except Exception as err_text:
        #make clip with error message text
        clip = make_blank_clip(str(err_text))
        
    clip.set_output()
    Last edited by _Al_; 4th Jul 2019 at 13:28.
    Quote Quote  
  18. Member stax76's Avatar
    Join Date
    Nov 2009
    Location
    Germany
    Search PM
    @_Al_

    staxrip does manual plugin loading and it's based on the ancient vfw/avifile api like virtualdub2 so I recommend trying to open the vpy file generated by staxrip to open with virtualdub2.

    In the past there were severe issues that would only take done managed apps and not native apps but I hope this is not a severe issue.
    Quote Quote  
  19. yes, he has vapoursynth and python installed
    if not having that ffms2 source plugin in Vapoursynth pluging directory , he can use staxrip's DLL

    Code:
    import vapoursynth as vs
    
    #making sure that plugin is not loaded more times
    if not hasattr(vs.core, 'ffms2'):
        vs.core.std.LoadPlugin(path="C:\ path to whatever directory that ffms2 is in Staxrip directories  /ffms2.dll")
    source_path =  ...
    .
    .
    or it just could be (downloaded) and put it into that Vapoursynth directory or just to copy it from staxrip's directory into that plugin directory
    Last edited by _Al_; 4th Jul 2019 at 15:06.
    Quote Quote  
  20. Hi everybody.
    I have just tried to encode with staxrip on my new notebook and it looks like staxrip/nvenc cannot detect my graphic card correctly.

    HW encoding with integrated vega 10 works fine, NVEnc on another program (Handbrake) works with 1660ti too..

    Tried latest version of staxrip, then latest version of NVEnc but no luck...

    NVEnc Error (2.0.2.4)

    H.265/HEVC isn't supported by the graphics card.

    StaxRip.ErrorAbortException: H.265/HEVC isn't supported by the graphics card.
    v StaxRip.NVEnc.Encode()
    v StaxRip.GlobalClass.ProcessVideo()
    v System.Threading.Tasks.Parallel.<>c__DisplayClass4 _0.<Invoke>b__0()
    --- Konec trasování zásobníku z předchozího místa, ze kterého byla vyvolána výjimka ---
    v System.Runtime.ExceptionServices.ExceptionDispatch Info.Throw()
    v StaxRip.GlobalClass.ProcessJob(String jobPath)

    -------------------------- System Environment --------------------------

    StaxRip : 2.0.2.4
    Windows : Windows 10 Home 1809
    Language : Czech (Czechia)
    CPU : AMD Ryzen 7 3750H with Radeon Vega Mobile Gfx
    GPU : NVIDIA GeForce GTX 1660 Ti, AMD Radeon(TM) RX Vega 10 Graphics
    Resolution : 1920 x 1080
    DPI : 120

    ------------------------ MediaInfo Source File ------------------------
    Quote Quote  
  21. Member stax76's Avatar
    Join Date
    Nov 2009
    Location
    Germany
    Search PM
    NVEnc is causing this error, please report it here:

    https://github.com/rigaya/NVEnc/issues
    Quote Quote  
  22. Done it and answer was that its not a nvenc bug.
    After last reinstalation of nvidia drivers (for game ready from last month) nvenc 4.3 with latest staxrip starts working...

    btw. on 1070ti with i7 5th generation i get around 7-12% GPU usage and less then 25% VE (with 2 task simultaneously) while on ryzen 3750h with 1660ti i get 100% VE all the time (wit 1 task or 2 tasks). What exactly is VE..%?
    Conversion speed loks +- same.
    Quote Quote  
  23. Member stax76's Avatar
    Join Date
    Nov 2009
    Location
    Germany
    Search PM
    2.0.4.1 Beta
    • nvenc switch --avhw updated (Patman86), --sub-source added
    • qsvenc switches added: --data-copy, --adapt-ltr
    • progress display support added for DGIndexNV, MP4Box and ffmpeg audio encoding
    • L-Smash Works parameters prefer_hw and format have menu support in the avs/vs code editor
    • the container/muxer dialog has a new tab for MKV attachments
    • fix: a format exception was fixed, it was happening when the cut/trim feature was used
    • update: nvenc 4.47
    • update: L-Smash Works 2019-09-10 HolyWu
    • update: MediaInfo 19.09
    • update: mpv.net 5.4.1.1

    https://www.dropbox.com/sh/4ctl2y928xkak4f/AAADEZj_hFpGQaNOdd3yqcAHa?dl=0

    https://1drv.ms/f/s!ArwKS_ZUR01gySQIE1QCL2i9F_uR
    Quote Quote  
  24. Member stax76's Avatar
    Join Date
    Nov 2009
    Location
    Germany
    Search PM
    2.0.4.3 Beta
    • new AviSynth script CropResize added
    • update: x265 3.1+15-a092e82 Wolfberry
    • update: MP4Box 0.8.0-rev69-5fe3ec1 Wolfberry
    • update: ffmpeg 4.2.1 Wolfberry
    • update: L-Smash Works 2019-09-14 HolyWu
    • the filter list in the main dialog shows shorter filter names,
      for example 'BicubicResize' instead of 'Resize BicubicResize'
    • SubtitleEdit is now included
    • chapterEditor has been integrated into the main menu and
      into the container/muxer dialog
    • a Tag File option has been added to the container/muxer dialog
    • container/muxer has a Tags tab added with a grid view for editing tags
    • Kodi nfo files are imported into tags

    https://www.dropbox.com/sh/4ctl2y928xkak4f/AAADEZj_hFpGQaNOdd3yqcAHa?dl=0

    https://1drv.ms/f/s!ArwKS_ZUR01gySQIE1QCL2i9F_uR
    Quote Quote  
  25. Member
    Join Date
    Oct 2004
    Location
    United States
    Search PM
    I just wanted to say thanks for putting this tool together! It's an awesome way to help people have access to the incredible power of AviSynth tools without having to start from ground 0.

    I needed to deinterlace a video using QTGMC so I started down the rabbit hole of downloading programs, plugins, dependencies...etc. and then found StaxRip and it made it MUCH easier...now I can focus on figuring out the actual parameters I want to use with the filters, instead of spending hours just trying to get all the right files, figure out how to make them all work together, and then figure out how to write a script from nothing .

    The filter queue and the ability to go in there and manually edit the parameters is perfect as well as the ability to save to lossy or lossless formats without having to add more plugins/filters/etc. THANK YOU!!!
    Last edited by greymalkin; 14th Sep 2019 at 10:28.
    Quote Quote  
  26. @greymalkin

    So great to see sincere appreciation for developers' generous efforts on our behalf. You are a fine person!
    Quote Quote  
  27. Member stax76's Avatar
    Join Date
    Nov 2009
    Location
    Germany
    Search PM
    @greymalkin

    Thank you very much for the appreciation, knowing to do something useful is helping us much.
    Quote Quote  
  28. wow, but in my country this music is forbidden, so I use vpn
    Quote Quote  



Similar Threads