VideoHelp Forum

Try DVDFab and download streaming video, copy, convert or make Blu-rays,DVDs! Download free trial !
+ Reply to Thread
Results 1 to 3 of 3
Thread
  1. Hello gets,

    I am using Tubedigger with good success. I downloaded some streamings and fixed them with Tubedigger. As result I have full functional file with audio/video sync. When I try to convert it to WMV or MPEG I get the video with no audio.

    I have used Replay Video Converter from Applian.com and also WinX DVD converter. In both cases using the default parameters.

    Can somebody help. I am pretty new to the field and I do not know much about it.

    Kind Regards
    Quote Quote  
  2. I'm a MEGA Super Moderator Baldrick's Avatar
    Join Date
    Aug 2000
    Location
    Sweden
    Search Comp PM
    Can you post the details from the mp4? Use mediainfoxp.

    Or just try another converter like xmedia recode, video to video converter, format factory, etc.
    Quote Quote  
  3. Dear Baldrick, thank you for replying.

    I have attached the analysis result from videoxp

    General
    Complete name : C:\Users\Pierfrancesco\Videos\TubeDigger\rox.mp4
    Format : MPEG-4
    Format profile : Base Media
    Codec ID : isom
    File size : 2.84 MiB
    Duration : 41s 889ms
    Overall bit rate mode : Variable
    Overall bit rate : 569 Kbps
    Writing application : Lavf54.63.104

    Video
    ID : 1
    Format : AVC
    Format/Info : Advanced Video Codec
    Format profile : Main@L3.1
    Format settings, CABAC : No
    Format settings, ReFrames : 1 frame
    Format settings, GOP : M=1, N=10
    Codec ID : avc1
    Codec ID/Info : Advanced Video Coding
    Duration : 24s 40ms
    Bit rate : 899 Kbps
    Width : 800 pixels
    Height : 600 pixels
    Display aspect ratio : 4:3
    Frame rate mode : Variable
    Frame rate : 30.000 fps
    Minimum frame rate : 25.000 fps
    Maximum frame rate : 30.001 fps
    Standard : NTSC
    Color space : YUV
    Chroma subsampling : 4:2:0
    Bit depth : 8 bits
    Scan type : Progressive
    Bits/(Pixel*Frame) : 0.062
    Stream size : 2.57 MiB (91%)
    Color range : Limited

    Audio
    ID : 2
    Format : AAC
    Format/Info : Advanced Audio Codec
    Format profile : LC
    Codec ID : 40
    Duration : 41s 889ms
    Bit rate mode : Variable
    Bit rate : 48.0 Kbps
    Maximum bit rate : 51.7 Kbps
    Channel(s) : 2 channels
    Channel positions : Front: L R
    Sampling rate : 22.05 KHz
    Compression mode : Lossy
    Stream size : 254 KiB (9%)



    I have installed video to video converter which seems quite user friendly.

    The conversion process works except the fact that audio is no longer aligned with the video.

    Do I have any simple tool that helps me to re-align video and audio timeline. Or any other tool that does that automatically?

    Kind Regards.
    Quote Quote