VideoHelp Forum

Our website is made possible by displaying online advertisements to our visitors. Consider supporting us by disable your adblocker or Try ConvertXtoDVD and convert all your movies to DVD. Free trial ! :)
+ Reply to Thread
Results 1 to 4 of 4
Thread
  1. Hello to everyone, i have a question. How can i get a short information about a videofile like this:

    Format : AVI at 1 989 Kbps
    Length : 1,52 GiB for 1h 49min 8s 800ms
    Video #0 : MPEG-4 Visual at 1 533 Kbps
    Aspect : 720 x 400 (1.800) at 25.000 fps
    Audio #0 : AC-3 at 448 Kbps
    Infos : 6 Channels, 48,0 KHz
    I know that programs like MPC, VLC and others can show information about videos, but its too long, like here:

    General
    Complete name : G:\geforcereview.avi
    Format : AVI
    Format/Info : Audio Video Interleave
    File size : 1.52 GiB
    Duration : 1h 49mn
    Overall bit rate : 1 989 Kbps

    Video
    ID : 0
    Format : MPEG-4 Visual
    Format profile : Advanced Simple@L5
    Format settings, BVOP : Yes
    Format settings, QPel : No
    Format settings, GMC : No warppoints
    Format settings, Matrix : Default (H.263)
    Codec ID : XVID
    Codec ID/Hint : XviD
    Duration : 1h 49mn
    Bit rate : 1 533 Kbps
    Width : 720 pixels
    Height : 400 pixels
    Display aspect ratio : 16:9
    Frame rate : 25.000 fps
    Color space : YUV
    Chroma subsampling : 4:2:0
    Bit depth : 8 bits
    Scan type : Progressive
    Compression mode : Lossy
    Bits/(Pixel*Frame) : 0.213
    Stream size : 1.17 GiB (77%)
    Writing library : XviD 1.2.1 (UTC 2008-12-04)

    Audio
    ID : 1
    Format : AC-3
    Format/Info : Audio Coding 3
    Mode extension : CM (complete main)
    Format settings, Endianness : Big
    Codec ID : 2000
    Duration : 1h 49mn
    Bit rate mode : Constant
    Bit rate : 448 Kbps
    Channel(s) : 6 channels
    Channel positions : Front: L C R, Side: L R, LFE
    Sampling rate : 48.0 KHz
    Bit depth : 16 bits
    Compression mode : Lossy
    Stream size : 350 MiB (23%)
    Alignment : Aligned on interleaves
    Interleave, duration : 64 ms (1.60 video frames)
    Interleave, preload duration : 192 ms
    Thanks in advance
    Quote Quote  
  2. Member
    Join Date
    Sep 2012
    Location
    Australia
    Search Comp PM
    For what purpose do you need this info? Most of the fields MediaInfo puts out are there for very good reasons, which fields do you actually find important?
    Quote Quote  
  3. Custom view.
    Quote Quote  
  4. Member
    Join Date
    Sep 2012
    Location
    Australia
    Search Comp PM
    [View | Basic] is the simplest MediaInfo option, but it's usefulness is dependant on what you need it for.
    Quote Quote