VideoHelp Forum

Our website is made possible by displaying online advertisements to our visitors. Consider supporting us by disable your adblocker or Try ConvertXtoDVD and convert all your movies to DVD. Free trial ! :)
+ Reply to Thread
Results 1 to 3 of 3
Thread
  1. Hello. Has anyone with success, by using Handbrake created a file where chapters are actually working on PS3?

    Before encoding using Handbrake, I can see the chapters on the Chapter tab, and the encoded file also shows the chapters in VLC.

    But when I want to see the movie on my PS3 there are no chapters. Nor on my WD TV Live

    So: If You have working chapters on PS3 with a handbraked file, could You please tell me what setting You are using?

    Thank you
    Quote Quote  
  2. Member
    Join Date
    Sep 2012
    Location
    Australia
    Search Comp PM
    What container format are you outputting as, MP4 or MKV?

    If MP4, look at the file with MediaInfo, see if there are Nero Chapters in the file.
    Quote Quote  
  3. Well, I have tried both - m4v and mp4. In the mp4 file mediainfo look like this:
    (Chap1 and Chap2 at the bottom)


    General
    Complete name : C:\Users\Public\Videos\Title00-1-1.mp4
    Format : MPEG-4
    Format profile : Base Media / Version 2
    Codec ID : mp42
    File size : 483 MiB
    Duration : 24mn 49s
    Overall bit rate mode : Variable
    Overall bit rate : 2 717 Kbps
    Writing application : HandBrake 6509svn 2014110901

    Video
    ID : 1
    Format : AVC
    Format/Info : Advanced Video Codec
    Format profile : Baseline@L4.0
    Format settings, CABAC : No
    Format settings, ReFrames : 1 frame
    Codec ID : avc1
    Codec ID/Info : Advanced Video Coding
    Duration : 24mn 49s
    Duration_FirstFrame : 22ms
    Bit rate : 2 549 Kbps
    Width : 720 pixels
    Height : 576 pixels
    Display aspect ratio : 16:9
    Frame rate mode : Constant
    Frame rate : 25.000 fps
    Standard : PAL
    Color space : YUV
    Chroma subsampling : 4:2:0
    Bit depth : 8 bits
    Scan type : Progressive
    Bits/(Pixel*Frame) : 0.246
    Stream size : 453 MiB (94%)
    Writing library : x264 core 142 r2479 dd79a61
    Encoding settings : cabac=0 / ref=1 / deblock=0:0:0 / analyse=0:0 / me=dia / subme=0 / psy=1 / psy_rd=1.00:0.00 / mixed_ref=0 / me_range=16 / chroma_me=1 / trellis=0 / 8x8dct=0 / cqm=0 / deadzone=21,11 / fast_pskip=1 / chroma_qp_offset=0 / threads=12 / lookahead_threads=2 / sliced_threads=0 / nr=0 / decimate=1 / interlaced=0 / bluray_compat=0 / constrained_intra=0 / bframes=0 / weightp=0 / keyint=250 / keyint_min=25 / scenecut=0 / intra_refresh=0 / rc_lookahead=0 / rc=crf / mbtree=0 / crf=20.0 / qcomp=0.60 / qpmin=0 / qpmax=69 / qpstep=4 / vbv_maxrate=20000 / vbv_bufsize=25000 / crf_max=0.0 / nal_hrd=none / filler=0 / ip_ratio=1.40 / aq=0
    Color primaries : BT.601 PAL
    Transfer characteristics : BT.709
    Matrix coefficients : BT.601
    Color range : Limited

    Audio
    ID : 2
    Format : AAC
    Format/Info : Advanced Audio Codec
    Format profile : LC
    Codec ID : 40
    Duration : 24mn 49s
    Bit rate mode : Variable
    Bit rate : 164 Kbps
    Channel(s) : 2 channels
    Channel positions : Front: L R
    Sampling rate : 48.0 KHz
    Compression mode : Lossy
    Stream size : 29.1 MiB (6%)
    Title : Stereo / Stereo
    Language : Danish

    Menu
    ID : 3
    Codec ID : text
    Duration : 24mn 49s
    Language : English
    Bit rate mode : CBR
    Duration_FirstFrame : -289477
    00:00:00.000 : chap1
    00:10:00.163 : chap2
    Quote Quote