VideoHelp Forum

Try DVDFab and download streaming video, copy, convert or make Blu-rays,DVDs! Download free trial !
+ Reply to Thread
Results 1 to 14 of 14
Thread
  1. Member
    Join Date
    Oct 2014
    Location
    Cherbourg - FRANC
    Search Comp PM
    Hello,

    I'm looking for a 'Video analyser online' id : an url which offers the same services as NBO Builder, MediaInfo, GSpot, etc ...

    I indicate a file (.avi, .mp4, .mkv, etc) on my hard disk and it give me technical data from my file as :

    * codec video, dims (height * width), framerate, length
    * codec audio (number of chanels, codec for each one, framerates ...
    * name of container

    free, of course

    Best thing : with an API : it will be great !!
    Quote Quote  
  2. Why?
    Quote Quote  
  3. Member
    Join Date
    Oct 2014
    Location
    Cherbourg - FRANC
    Search Comp PM
    to assume no tcheater (not to be necessary to verify)

    Why why ? May my answer coult have an incidence to the answer of my question ?
    Quote Quote  
  4. Member
    Join Date
    Mar 2011
    Location
    Nova Scotia, Canada
    Search Comp PM
    Originally Posted by ArouG View Post
    to assume no tcheater (not to be necessary to verify)

    Why why ? May my answer coult have an incidence to the answer of my question ?
    That makes even LESS sense than the original question. Ridiculous.
    Quote Quote  
  5. Member
    Join Date
    Oct 2014
    Location
    Cherbourg - FRANC
    Search Comp PM
    OK ! forget my second question so ... No need of reasons why or explain, please
    Quote Quote  
  6. Member Budman1's Avatar
    Join Date
    Jul 2012
    Location
    NORTHWEST ILLINOIS, USA
    Search Comp PM
    Why in heavens name would you want to go online to find information available locally without a network connection, delay, errors, etc? If you want to know the truth just interrogate the file with one of those methods you listed. Media Info usually reads MetaData first and if you want real data strip it off first.
    Click image for larger version

Name:	ScreenHunter_120 Oct. 22 23.07.jpg
Views:	216
Size:	23.4 KB
ID:	28086
    Bad data

    Click image for larger version

Name:	ScreenHunter_120 Oct. 22 23.08.jpg
Views:	175
Size:	21.8 KB
ID:	28087
    Stripped and corrected.
    Quote Quote  
  7. Member
    Join Date
    Oct 2014
    Location
    Cherbourg - FRANC
    Search Comp PM
    And why are there sites whiwh propose tu convert your file "on line" ?? Every body can do the job locally then why those services are offered 'online' ?

    Sorry to trouble you on "the reason why".

    I read "Video and Help" . I try ... Thanks for your help !
    After some hours, I could suppose you have not answer.
    Quote Quote  
  8. Member Budman1's Avatar
    Join Date
    Jul 2012
    Location
    NORTHWEST ILLINOIS, USA
    Search Comp PM
    ??? There are sites which propose to CONVERT your file because conversion is sometime difficult for many people. You originally asked about online service for file information and this is very simple with one of the many free programs such as MediaInfo.
    Quote Quote  
  9. Member
    Join Date
    Oct 2014
    Location
    Cherbourg - FRANC
    Search Comp PM
    I know somebodies who have no email-adress ! and my own father needs to convert his movies camera online !! I'd tried to explain him how works very simple (but not great converters) ... but not ! He preffer online tools .

    And ... again ... no interest the reason why to my question !
    But thanks again of your "no answer"
    Quote Quote  
  10. Member
    Join Date
    Aug 2006
    Location
    United States
    Search Comp PM
    You did not get an answer because nobody here (including me) would use an online analysis service to obtain information about their media files. As was already pointed out to you, it is more convenient to install and use software like MediaInfo for that purpose when such information is needed often.

    Google found this:
    http://www.x-dream-media.com/index.php/en/xdm-tools/264-online-file-analyzer

    I have never used this service and I am not willing to test it for you.
    Last edited by usually_quiet; 23rd Oct 2014 at 08:13.
    Quote Quote  
  11. Member
    Join Date
    Oct 2014
    Location
    Cherbourg - FRANC
    Search Comp PM
    @usually_quiet : It works !!!!! and I'm very very happy. Big and really thank this time

    I've tried Google with "Video files analyser online" but never find (I'm french )

    Anyway ... I'm registered and I've try 2 examples ... the answer is very quick and good.

    2 pieces of proof :

    ****************
    General
    Complete name : /usr/signiant/dds/3rdparty/jboss/server/default/deploy/signiant.war/3rdparty/onlineMxfAnalyzerUploaded/20141022-023711314.mxf
    Format : MPEG-4
    Format profile : Base Media
    Codec ID : isom
    File size : 250 KiB
    Duration : 20mn 21s
    Overall bit rate mode : Variable
    Overall bit rate : 1 677 bps
    Encoded date : UTC 2014-02-14 21:09:45
    Tagged date : UTC 2014-02-14 21:09:45

    Video
    ID : 1
    Format : AVC
    Format/Info : Advanced Video Codec
    Format profile : Baseline@L3.0
    Format settings, CABAC : No
    Format settings, ReFrames : 3 frames
    Codec ID : avc1
    Codec ID/Info : Advanced Video Coding
    Duration : 20mn 20s
    Bit rate : 1 494 Kbps
    Width : 640 pixels
    Height : 360 pixels
    Display aspect ratio : 16:9
    Frame rate mode : Constant
    Frame rate : 25.000 fps
    Color space : YUV
    Chroma subsampling : 4:2:0
    Bit depth : 8 bits
    Scan type : Progressive
    Bits/(Pixel*Frame) : 0.259
    Stream size : 217 MiB
    Language : English
    Encoded date : UTC 2014-02-14 21:09:45
    Tagged date : UTC 2014-02-14 21:09:45

    Audio
    ID : 2
    Format : AAC
    Format/Info : Advanced Audio Codec
    Format profile : LC
    Codec ID : 40
    Duration : 20mn 21s
    Bit rate mode : Variable
    Nominal bit rate : 87.0 Kbps
    Maximum bit rate : 96.0 Kbps
    Channel(s) : 2 channels
    Channel positions : Front: L R
    Sampling rate : 44.1 KHz
    Compression mode : Lossy
    Language : English
    Encoded date : UTC 2014-02-14 21:09:45
    Tagged date : UTC 2014-02-14 21:09:45

    ----------------------------------------------------------------------------------------------------------------------------

    General
    Complete name : /usr/signiant/dds/3rdparty/jboss/server/default/deploy/signiant.war/3rdparty/onlineMxfAnalyzerUploaded/20141022-023733160.mxf
    Format : AVI
    Format/Info : Audio Video Interleave
    File size : 250 KiB
    Duration : 1h 33mn
    Overall bit rate : 363 bps
    Writing application : MEncoder SVN-r30881(20100311-gcc4.3.3)
    Writing library : MPlayer

    Video
    ID : 0
    Format : MPEG-4 Visual
    Format profile : Advanced Simple@L5
    Format settings, BVOP : 2
    Format settings, QPel : No
    Format settings, GMC : No warppoints
    Format settings, Matrix : Default (H.263)
    Codec ID : XVID
    Codec ID/Hint : XviD
    Duration : 1h 33mn
    Width : 640 pixels
    Height : 360 pixels
    Display aspect ratio : 16:9
    Frame rate : 25.000 fps
    Color space : YUV
    Chroma subsampling : 4:2:0
    Bit depth : 8 bits
    Scan type : Progressive
    Compression mode : Lossy
    Writing library : XviD 1.2.1 (UTC 2008-12-04)

    Audio
    ID : 1
    Format : MPEG Audio
    Format version : Version 1
    Format profile : Layer 3
    Mode : Joint stereo
    Mode extension : MS Stereo
    Codec ID : 55
    Codec ID/Hint : MP3
    Duration : 1h 33mn
    Bit rate mode : Constant
    Bit rate : 128 Kbps
    Channel(s) : 2 channels
    Sampling rate : 44.1 KHz
    Compression mode : Lossy
    Delay relative to video : 40ms
    Stream size : 85.9 MiB
    Alignment : Aligned on interlea
    ******************
    Quote Quote  
  12. Glad you found a solution. Have you tried it with a large file yet?
    Quote Quote  
  13. Member
    Join Date
    Aug 2006
    Location
    United States
    Search Comp PM
    Originally Posted by smrpix View Post
    Glad you found a solution. Have you tried it with a large file yet?
    The service only uploads the first 265kb from the file to get the header. If for some reason the required information is not stored in the first 265kb then this online service won't work for that type of file.
    Quote Quote  
  14. Member
    Join Date
    Oct 2014
    Location
    Cherbourg - FRANC
    Search Comp PM
    You had understood !! Even a big file (MKV of 7,5 Gb ) : quite instantly !!

    I know that MediaInfo have binaries for CentOS. Now that I know it's realisable I think I'll try to my server ... only 265kb !! Yes !

    and, again, a great thank to usually_quiet !!
    Last edited by ArouG; 23rd Oct 2014 at 12:33. Reason: thanks again
    Quote Quote