VideoHelp Forum

Try DVDFab and download streaming video, copy, convert or make Blu-rays,DVDs! Download free trial !
+ Reply to Thread
Results 1 to 8 of 8
Thread
  1. Hello, I've posted a similar question some months ago, and the suggestions I had were good enough to help me get what I needed so I thought I'd give another shot with this: http://www.lamarcardinals.com/collegesportslive/?media=407518
    It's a basketball game, usually I'm able to save these videos with Tubedigger or the KSV Adobe downloader, but for some reason, I'm not having any luck with this one.

    Tubedigger (I have a registered version, and have tried pretty much every single release from 4.7.5 on) will just save about half of the video. Actually it does a pretty weird thing which I haven't seen with any other site: when I start playing the video, the progress bar is already at 40% or so. I have tried emailing the developer to ask him about this but i haven't got any reply til now.

    With the adobe hds downloader, here's what i have at the end of the process:

    C:\PHP>php AdobeHDS.php --manifest "http://cbsicollege-lh.akamaihd.net/z/407518_
    lama9ZAOO@134905/manifest.f4m?g=FKOREYNDCEBG&hdcore=3.1.0" --parallel 4 --delete


    KSV Adobe HDS Downloader

    Processing manifest info....
    Quality Selection:
    Available: 1296
    Selected : 1296
    Downloading 232086090/232086090 fragments
    Found 0 fragments

    C:\PHP>pause

    I've tried many times, but I always have 0 fragments found. I've used this script 4-5 times before with different videos, and it always worked like a charm, so i've not messed with the switches (I wouldn't actually know what to try anyway).

    Thanks for your attention, and for your time
    Quote Quote  
  2. Member nullacht's Avatar
    Join Date
    Jun 2013
    Location
    On The Run.
    Search PM
    Code:
    http://www.lamarcardinals.com/collegesportslive/?media=407518
    Code:
    http://cbsicollege-lh.akamaihd.net/z/407518_lama9ZAOO@134905/manifest.f4m?g=KLHILYDYHNBF&hdcore=3.1.0
    Code:
    http://github.com/chrippa/livestreamer/releases
    Code:
    livestreamer "hds://cbsicollege-lh.akamaihd.net/z/407518_lama9ZAOO@134905/manifest.f4m?g=KLHILYDYHNBF&hdcore=3.1.0" best -o 01.flv
    Code:
    [cli][info] Found matching plugin stream for URL hds://cbsicollege-lh.akamaihd.net/z/407518_lama9ZAOO@134905/manifest.f4m?g=KLHILYDYHNBF&hdcore=3.1.0
    [cli][info] Available streams: 1296k (worst, best)
    [cli][info] Opening stream: 1296k (hds)
    Quote Quote  
  3. Great, thank you!
    Quote Quote  
  4. Hi ,

    @getupkid :

    Code:
    @echo on
    php AdobeHDS.php --manifest "http://cbsicollege-lh.akamaihd.net/z/407518_lama9ZAOO@134905/manifest.f4m?g=KYYOCUPFVWMI&hdcore=3.1.0" --delete --auth "hdcore=3.1.0" --parallel 8 --useragent "Mozilla/5.0 (Windows NT 5.1; rv:32.0) Gecko/20100101 Firefox/32.0"
    pause
    :fin
    
    NOTEs :
    _ In your link , was missing : 
    --auth "hdcore=3.1.0" --useragent "Mozilla/5.0 (Windows NT 5.1; rv:32.0) Gecko/20100101 Firefox/32.0"
    _ Added --parallel 8
    
    === Process ===
    KSV Adobe HDS Downloader
    ---
    Processing manifest info....
    Quality Selection:
     Available: 1296
     Selected : 1296
    Fragments Total: 232086090, First: 232084753, Start: 232084753, Parallel: 8
    Downloading 232086090/232086090 fragments
    Found 0 fragments
    Finished
    ===
    Got a file :
    85f8cd5b963fea813ad31fff79fe86cf_single_91a6c3b19250dc71-p_Seg1-Frag.flv (1 205 872 ko)
    ( No interesting video during the first time until 19'50" ).
    ===============
    
    ???
    The fragments ( in the directory ) were not destroyed 
    85f8cd5b963fea813ad31fff79fe86cf_single_91a6c3b19250dc71-p_Seg1-Frag232084753
    ...
    85f8cd5b963fea813ad31fff79fe86cf_single_91a6c3b19250dc71-p_Seg1-Frag232086090
    ???
    
    ??? are missing ???
    85f8cd5b963fea813ad31fff79fe86cf_single_91a6c3b19250dc71-p_Seg1-Frag232085334
    85f8cd5b963fea813ad31fff79fe86cf_single_91a6c3b19250dc71-p_Seg1-Frag232085335
    85f8cd5b963fea813ad31fff79fe86cf_single_91a6c3b19250dc71-p_Seg1-Frag232085336
    ???????????????????
    @nullacht : thanks .

    Cheers .
    Quote Quote  
  5. use ffmpeg

    Code:
    ffmpeg -i "http://cbsicollege-lh.akamaihd.net/i/407518_lama9ZAOO@134905/master.m3u8" -c copy video.ts
    Quote Quote  
  6. Hi ,

    @CristianoA : Thanks for your reply . Your process is stopping while DL the video (???) .

    Code:
    No longer receiving variant 1ze=    2033kB time=00:00:11.47 bitrate=1450.6kbits/s
    [hls,applehttp @ 02d05e20] No longer receiving variant 2
    [hls,applehttp @ 02d05e20] No longer receiving variant 3
    HTTP error 404 Not Found.0 size=   30663kB time=00:02:54.97 bitrate=1435.6kbits/s
    [http @ 028244a0] HTTP error 404 Not Found
    frame= 5251 fps= 41 q=-1.0 Lsize=   30702kB time=00:02:55.23 bitrate=1435.3kbits/s
    video:25735kB audio:2050kB subtitle:0 global headers:0kB muxing overhead 10.497217%
    Regards .
    Quote Quote  
  7. Originally Posted by aazerty View Post
    Hi ,

    @CristianoA : Thanks for your reply . Your process is stopping while DL the video (???) .

    Code:
    No longer receiving variant 1ze=    2033kB time=00:00:11.47 bitrate=1450.6kbits/s
    [hls,applehttp @ 02d05e20] No longer receiving variant 2
    [hls,applehttp @ 02d05e20] No longer receiving variant 3
    HTTP error 404 Not Found.0 size=   30663kB time=00:02:54.97 bitrate=1435.6kbits/s
    [http @ 028244a0] HTTP error 404 Not Found
    frame= 5251 fps= 41 q=-1.0 Lsize=   30702kB time=00:02:55.23 bitrate=1435.3kbits/s
    video:25735kB audio:2050kB subtitle:0 global headers:0kB muxing overhead 10.497217%
    Regards .

    try

    Code:
    #EXTM3U
    #EXT-X-STREAM-INF:PROGRAM-ID=1,BANDWIDTH=1296000,RESOLUTION=640x360,CODECS="avc1.66.30, mp4a.40.34"
    http://cbsicollege-lh.akamaihd.net/i/407518_lama9ZAOO@134905/index_single_av-p.m3u8?sd=10&rebase=on
    #EXT-X-STREAM-INF:PROGRAM-ID=1,BANDWIDTH=1296000,RESOLUTION=640x360,CODECS="avc1.66.30, mp4a.40.34"
    http://cbsicollege-lh.akamaihd.net/i/407518_lama9ZAOO@134905/index_single_av-b.m3u8?sd=10&rebase=on
    #EXT-X-STREAM-INF:PROGRAM-ID=1,BANDWIDTH=96000,CODECS="mp4a.40.34"
    http://cbsicollege-lh.akamaihd.net/i/407518_lama9ZAOO@134905/index_single_a-p.m3u8?sd=10&rebase=on
    #EXT-X-STREAM-INF:PROGRAM-ID=1,BANDWIDTH=96000,CODECS="mp4a.40.34"
    http://cbsicollege-lh.akamaihd.net/i/407518_lama9ZAOO@134905/index_single_a-b.m3u8?sd=10&rebase=on
    Quote Quote  
  8. Hi ,

    @CristianoA : Thanks for your reply .

    ---
    Result , having used "index_single_av-b.m3u8" , same problem .
    ---

    Cheers .
    Quote Quote