VideoHelp Forum

Our website is made possible by displaying online advertisements to our visitors. Consider supporting us by disable your adblocker or Try ConvertXtoDVD and convert all your movies to DVD. Free trial ! :)
+ Reply to Thread
Results 1 to 3 of 3
Thread
  1. Hi ,
    I have an mkv
    Code:
    ffmpeg\ffmpeg-20131202-git-e3d7a39-win32-static\bin\ffmpeg
    .exe -i "c:\1.mkv"
    ffmpeg version N-58699-ge3d7a39 Copyright (c) 2000-2013 the FFmpeg developers
      built on Dec  1 2013 22:01:48 with gcc 4.8.2 (GCC)
      configuration: --enable-gpl --enable-version3 --disable-w32threads --enable-av
    isynth --enable-bzlib --enable-fontconfig --enable-frei0r --enable-gnutls --enab
    le-iconv --enable-libass --enable-libbluray --enable-libcaca --enable-libfreetyp
    e --enable-libgsm --enable-libilbc --enable-libmodplug --enable-libmp3lame --ena
    ble-libopencore-amrnb --enable-libopencore-amrwb --enable-libopenjpeg --enable-l
    ibopus --enable-librtmp --enable-libschroedinger --enable-libsoxr --enable-libsp
    eex --enable-libtheora --enable-libtwolame --enable-libvidstab --enable-libvo-aa
    cenc --enable-libvo-amrwbenc --enable-libvorbis --enable-libvpx --enable-libwavp
    ack --enable-libx264 --enable-libxavs --enable-libxvid --enable-zlib
      libavutil      52. 56.100 / 52. 56.100
      libavcodec     55. 44.100 / 55. 44.100
      libavformat    55. 22.100 / 55. 22.100
      libavdevice    55.  5.102 / 55.  5.102
      libavfilter     3. 91.100 /  3. 91.100
      libswscale      2.  5.101 /  2.  5.101
      libswresample   0. 17.104 /  0. 17.104
      libpostproc    52.  3.100 / 52.  3.100
    Input #0, matroska,webm, from 'c:\1.mkv':
      Metadata:
        creation_time   : 2011-05-25 18:29:43
      Duration: 01:32:09.58, start: 0.000000, bitrate: 2380 kb/s
        Stream #0:0: Video: h264 (Main), yuv420p, 1280x544 [SAR 1:1 DAR 40:17], 23.9
    8 fps, 23.98 tbr, 1k tbn, 47.95 tbc (default)
        Stream #0:1: Audio: aac, 48000 Hz, 5.1, fltp (default)
        Stream #0:2: Audio: mp3, 48000 Hz, stereo, s16p, 224 kb/s
        Stream #0:3: Subtitle: subrip (default)
        Stream #0:4: Subtitle: subrip
    At least one output file must be specified
    0.2 is hindi audio.
    My samsung TV plays mp4 properly . In mkv , it does not support fast forward & no way to switch audio tracks .
    So I tried to convert to mp4 using ffmpeg binary in windows . The resulting mp4 has audio being heard before concerned video frame appears . What should I do ?
    Quote Quote  
  2. I'm a MEGA Super Moderator Baldrick's Avatar
    Join Date
    Aug 2000
    Location
    Sweden
    Search Comp PM
    Try mkv2mp4.
    Quote Quote  
  3. sorry for my late reply . turns out mp4 plays properly on desktop . But my LCD tv causes sync issue for this video . converting to vob will blow up file size . can you suggest any alternative ?
    Quote Quote