VideoHelp Forum

Try DVDFab and download streaming video, copy, convert or make Blu-rays,DVDs! Download free trial !
+ Reply to Thread
Results 1 to 11 of 11
Thread
  1. Hey,
    how can I play the original MOV file from https://vimeo.com/8284166 (3 GB)?

    Thanks

    General
    Complete name : Cavalcade.mov
    Format : MPEG-4
    Format profile : QuickTime
    Codec ID : qt
    File size : 3.34 GiB
    Duration : 27s 0ms
    Overall bit rate mode : Constant
    Overall bit rate : 1 063 Mbps
    Encoded date : UTC 2006-06-13 19:35:34
    Tagged date : UTC 2012-12-11 18:33:51
    Writing library : Apple QuickTime

    Video
    ID : 1
    Format : YUV
    Codec ID : v210
    Codec ID/Hint : AJA Video Systems Xena
    Duration : 27s 0ms
    Bit rate mode : Constant
    Bit rate : 1 062 Mbps
    Width : 1 920 pixels
    Height : 1 080 pixels
    Display aspect ratio : 16:9
    Frame rate mode : Constant
    Frame rate : 24.000 fps
    Color space : YUV
    Chroma subsampling : 4:2:2
    Bit depth : 10 bits
    Compression mode : Lossless
    Bits/(Pixel*Frame) : 21.333
    Stream size : 3.34 GiB (100%)
    Language : English
    Encoded date : UTC 2006-06-13 19:35:34
    Tagged date : UTC 2006-06-13 20:03:33

    Audio
    ID : 2
    Format : PCM
    Format settings, Endianness : Big
    Format settings, Sign : Signed
    Codec ID : twos
    Duration : 27s 0ms
    Bit rate mode : Constant
    Bit rate : 1 536 Kbps
    Channel(s) : 2 channels
    Channel positions : Front: L R
    Sampling rate : 48.0 KHz
    Bit depth : 16 bits
    Stream size : 4.94 MiB (0%)
    Language : English
    Encoded date : UTC 2006-06-13 19:35:34
    Tagged date : UTC 2006-06-13 20:03:33
    Quote Quote  
  2. VLC can play the file. SMPlayer played it but not smoothly.
    Quote Quote  
  3. VLC media player and SMPlayer are no option for me. Is there a filter that must be configured as external filter? I thought LAV Filers has all important ones integrated. Strange
    Quote Quote  
  4. Originally Posted by flashandpan007 View Post
    I thought LAV Filers has all important ones integrated. Strange
    Apparently not a v210 decoder (quicktime pro, uncompressed, 10 bit, YUV 4:2:2). If you can find a DirectShow v210 decoder MPCHC will be able to play the video.
    Quote Quote  
  5. Maybe the author of LAV Filters adds one
    Quote Quote  
  6. Click image for larger version

Name:	2014-08-03 16 04 58.png
Views:	846
Size:	18.3 KB
ID:	26716
    Maybe I misunderstood but LAV Video has V210 decoder, it just needs to be manually enabled in settings.
    Quote Quote  
  7. The LAV filter built into MPCHC doesn't include v210. At least, the version I have doesn't include it.
    Quote Quote  
  8. OK,
    found it in LAV Filters, but I can't find this page in internal LAV Filters of MPC-HC
    Quote Quote  
  9. I added external LAV Filters to MPC-HC and now it works.
    I created a ticket
    Quote Quote  
  10. Originally Posted by jagabo View Post
    The LAV filter built into MPCHC doesn't include v210. At least, the version I have doesn't include it.
    Didn't know that. I use MPC-BE with internal filters but I have separate LAV Filters intsalled for Avisynth and in case internal MPC-BE's filters don't work.
    Quote Quote  
  11. I also like MPC-BE very much. I'm one of the guys who translated it
    Quote Quote