VideoHelp Forum

Our website is made possible by displaying online advertisements to our visitors. Consider supporting us by disable your adblocker or Try ConvertXtoDVD and convert all your movies to DVD. Free trial ! :)
+ Reply to Thread
Page 2 of 2
FirstFirst 1 2
Results 31 to 39 of 39
Thread
  1. YT usually uses AAC for their videos (at least the newer high quality ones in the last few years), so your best bet if you want to keep the quality is to keep it as the original AAC audio and losslessly cut using mp3directcut (which can process AAC) . If you want to still convert to MP3, you have the option to specify whatever settings you want

    But for ease of use , there are free online services that can do what you want specifying in/out points , conversions e.g. http://www.clipconverter.cc/ , but you don't have as many options as if you did it yourself (e.g. maybe you need CBR, specific encoding settings, or specific bitrate)

    I specified your in/out points, and this is what it spit out

    mediainfo report : looks like it uses LAME for the MP3 conversion, and VBR
    Format : MPEG Audio
    File size : 1.73 MiB
    Duration : 1mn 1s
    Overall bit rate mode : Variable
    Overall bit rate : 238 Kbps
    Writing library : LAME3.99.5
    major_brand : dash
    minor_version : 0
    compatible_brands : iso6mp41

    Audio
    Format : MPEG Audio
    Format version : Version 1
    Format profile : Layer 3
    Mode : Joint stereo
    Mode extension : MS Stereo
    Duration : 1mn 1s
    Bit rate mode : Variable
    Bit rate : 238 Kbps
    Channel(s) : 2 channels
    Sampling rate : 44.1 KHz
    Compression mode : Lossy
    Stream size : 1.73 MiB (100%)
    Writing library : LAME3.99.5
    Image Attached Files
    Quote Quote  
  2. poisondealthray!
    This is great what i wanted, I have to figure our how to use mp3 directcut. 20kb, is that file so small?
    How did you manage to compress it to 1.73 mb the file that you have converted?
    ok, how about this-
    http://www.youtube.com/watch?v=4yd7rnwSuqM can you convert it as well?
    music starts at 20:10 finishes 21:11. Can you convert it?
    I tried to use clipconverter.cc it converts 200 MB+
    Quote Quote  
  3. Originally Posted by Bobcat! View Post
    poisondealthray!
    This is great what i wanted, I have to figure our how to use mp3 directcut. 20kb, is that file so small?
    Yes, it's very small lightweight editor . It can process mp3 and aac


    How did you manage to compress it to 1.73 mb the file that you have converted?
    ok, how about this-
    http://www.youtube.com/watch?v=4yd7rnwSuqM can you convert it as well?
    music starts at 20:10 finishes 21:11. Can you convert it?
    I tried to use clipconverter.cc it converts 200 MB+
    The 1.73MB file is whatever clipconverter sent .

    You probably downloaded the video, instead of selecting the audio option

    Did you enter the options to convert audio only ? In the Conversion options, instead of "download" select "MP3" if you want MP3



    Here is the 2nd one
    Format : MPEG Audio
    File size : 1.70 MiB
    Duration : 1mn 1s
    Overall bit rate mode : Variable
    Overall bit rate : 234 Kbps
    Writing library : LAME3.99.5
    major_brand : dash
    minor_version : 0
    compatible_brands : iso6mp41

    Audio
    Format : MPEG Audio
    Format version : Version 1
    Format profile : Layer 3
    Mode : Joint stereo
    Duration : 1mn 1s
    Bit rate mode : Variable
    Bit rate : 234 Kbps
    Channel(s) : 2 channels
    Sampling rate : 44.1 KHz
    Compression mode : Lossy
    Stream size : 1.70 MiB (100%)
    Writing library : LAME3.99.5
    Benefit of using clipconverter, is very low bandwidth (only the section is downloaded), easy to use. The negatives are limited options in the conversion compared to if you did it manually
    Image Attached Files
    Quote Quote  
  4. poisondealtray!
    https://www.youtube.com/watch?v=4yd7rnwSuqM
    Now, please walk me through this:music starts at 56:36 and finishes at 1:02:38
    Can you convert it please?
    Also, in times of start video and end video how do I input timing. What do i do next?
    I am so sorry I am bothering you, but I rally want to learn how to do it
    Quote Quote  
  5. If you can't figure out how to use http://www.clipconverter.cc/ you really need to find a new hobby.
    Quote Quote  
  6. Originally Posted by Bobcat! View Post
    poisondealtray!
    https://www.youtube.com/watch?v=4yd7rnwSuqM
    Now, please walk me through this:music starts at 56:36 and finishes at 1:02:38
    Can you convert it please?
    Also, in times of start video and end video how do I input timing. What do i do next?
    I am so sorry I am bothering you, but I rally want to learn how to do it



    it's pretty easy to use clipconverter.cc

    1) enter the YT url , push continue

    2) under conversion format, hit MP3 (the button will turn white)

    3a) under convert from: UNCHECKMARK start of video (otherwise it will start at the beginning), then enter the IN point e.g. 00:56:36

    3b) under convert from: UNCHECKMARK end of video (otherwise it will go to the end), then enter the OUT point e.g. 01:02:38

    4) push start

    5) wait for it to process, then push download


    Apparently there is browser addon so you might try that as well
    Image Attached Files
    Quote Quote  
  7. poisondealtray!
    Thank you!Thank you!Thank you!Thank you!
    This was indeed very easy!
    Thank you so much for help!!!!!!!
    Quote Quote  
  8. Member hech54's Avatar
    Join Date
    Jul 2001
    Location
    Yank in Europe
    Search Comp PM
    And my wife rolls her eyes when I say I'm not givin' up XP without a fight.
    Quote Quote  
  9. Thank you so much to all who tried to help me!
    http://www.clipconverter.cc/ is exactly what I've been looking for! Big Thanks to poisondeathray!
    Quote Quote