VideoHelp Forum

Our website is made possible by displaying online advertisements to our visitors. Consider supporting us by disable your adblocker or Try ConvertXtoDVD and convert all your movies to DVD. Free trial ! :)
+ Reply to Thread
Results 1 to 9 of 9
Thread
  1. When i burn a blueray movie and i use txmuxer to make the Mkv file to blueray disc, then burn it with imgburn then i cant get any picture on it in a ps3, only sound. In my Samsung bluerayplayer there is no problem.
    I hope someone has a solution
    Quote Quote  
  2. I'm a MEGA Super Moderator Baldrick's Avatar
    Join Date
    Aug 2000
    Location
    Sweden
    Search Comp PM
    Post the details from the mkv. Use mediainfo,view->text. It might not be blu-ray/avchd compliant so you must reconvert with for example bdtoavchd, bdrebuilder,etc.
    Quote Quote  
  3. Here you go :

    General
    Unique ID : 205295909407732554507105366649772364019 (0x9A728DCEEFD71766A34F23D1A026D0F3)
    Complete name : mkv file
    Format : Matroska
    Format version : Version 4 / Version 2
    File size : 13.0 GiB
    Duration : 2h 18mn
    Overall bit rate mode : Variable
    Overall bit rate : 13.4 Mbps
    Movie name :
    Encoded date : UTC 2013-11-07 16:43:02
    Writing application : mkvmerge v6.3.0 ('You can't stop me!') built on Jun 28 2013 20:09:41
    Writing library : libebml v1.3.0 + libmatroska v1.4.0
    Video
    ID : 3
    Format : AVC
    Format/Info : Advanced Video Codec
    Format profile : High@L4.1
    Format settings, CABAC : Yes
    Format settings, ReFrames : 5 frames
    Codec ID : V_MPEG4/ISO/AVC
    Duration : 2h 18mn
    Bit rate : 11.1 Mbps
    Width : 1 920 pixels
    Height : 798 pixels
    Display aspect ratio : 2.40:1
    Frame rate mode : Constant
    Frame rate : 23.976 fps
    Color space : YUV
    Chroma subsampling : 4:2:0
    Bit depth : 8 bits
    Scan type : Progressive
    Bits/(Pixel*Frame) : 0.303
    Stream size : 10.7 GiB (83%)
    Title :
    Language : English
    Default : Yes
    Forced : No
    Audio #1
    ID : 2
    Format : AC-3
    Format/Info : Audio Coding 3
    Mode extension : CM (complete main)
    Format settings, Endianness : Big
    Codec ID : A_AC3
    Duration : 2h 18mn
    Bit rate mode : Constant
    Bit rate : 448 Kbps
    Channel(s) : 6 channels
    Channel positions : Front: L C R, Side: L R, LFE
    Sampling rate : 48.0 KHz
    Bit depth : 16 bits
    Compression mode : Lossy
    Stream size : 443 MiB (3%)
    Title : DD5.1 AC3
    Language : English
    Default : No
    Forced : No
    Audio #2
    ID : 4
    Format : DTS
    Format/Info : Digital Theater Systems
    Format profile : ES
    Mode : 16
    Format settings, Endianness : Big
    Codec ID : A_DTS
    Duration : 2h 18mn
    Bit rate mode : Constant
    Bit rate : 1 509 Kbps
    Channel(s) : 6 channels
    Channel positions : Front: L C R, Side: L R, LFE
    Sampling rate : 48.0 KHz
    Bit depth : 24 bits
    Compression mode : Lossy
    Stream size : 1.46 GiB (11%)
    Title : DTS-ES
    Language : English
    Default : Yes
    Forced : No
    Audio #3
    ID : 5
    Format : Vorbis
    Format settings, Floor : 1
    Codec ID : A_VORBIS
    Duration : 2h 18mn
    Bit rate mode : Variable
    Bit rate : 60.0 Kbps
    Channel(s) : 2 channels
    Sampling rate : 48.0 KHz
    Compression mode : Lossy
    Stream size : 59.3 MiB (0%)
    Writing library : aoTuV 20110424 (UTC 2011-04-24)
    Language : English
    Default : No
    Forced : No
    Text #1
    ID : 1
    Format : UTF-8
    Codec ID : S_TEXT/UTF8
    Codec ID/Info : UTF-8 Plain Text
    Title : DANSK
    Language : Danish
    Default : Yes
    Forced : No
    Text #2
    ID : 6
    Format : VobSub
    Muxing mode : zlib
    Codec ID : S_VOBSUB
    Codec ID/Info : The same subtitle format used on DVDs
    Language : English
    Default : No
    Forced : No
    Text #3
    ID : 7
    Format : VobSub
    Muxing mode : zlib
    Codec ID : S_VOBSUB
    Codec ID/Info : The same subtitle format used on DVDs
    Language : English
    Default : No
    Forced : No
    Last edited by aika; 20th Nov 2013 at 07:25.
    Quote Quote  
  4. Yep, the resolution is not Blu-Ray compliant; it's been cropped.

    Another way to fix it would be to run the MKV through uncropMKV, then author with tsMuxer as before. (That means a re-encode, no way around it, and quality loss, however small.)
    Pull! Bang! Darn!
    Quote Quote  
  5. Ok, i am going to try that. How much quality loss are we talking about ?
    Quote Quote  
  6. Banned
    Join Date
    Oct 2004
    Location
    Freedonia
    Search Comp PM
    Originally Posted by aika View Post
    Ok, i am going to try that. How much quality loss are we talking about ?
    Nobody can answer that question. Depends on what you use to encode, what the settings are, and how picky you are. Under the best circumstances you won't notice. It's not possible to quantify the amount except to say under the best circumstances it should be "very little to unnoticeable".
    Quote Quote  
  7. Thank you, i am going to try the uncropMKV and will return with the result.
    Quote Quote  
  8. I cant get the uncropmkv program to Work but i re encoded it with bd to avchd and it worked fine, but took a very long time to re encode. The thing i notice was that there is now Black bars in top and bottum and not fuld screen movie. Can that be changed or is it just the way it is ?
    Quote Quote  
  9. Member
    Join Date
    Aug 2006
    Location
    United States
    Search Comp PM
    Originally Posted by aika View Post
    I cant get the uncropmkv program to Work but i re encoded it with bd to avchd and it worked fine, but took a very long time to re encode. The thing i notice was that there is now Black bars in top and bottum and not fuld screen movie. Can that be changed or is it just the way it is ?
    The Blu-Ray spec allows a resolution of 1920x1080 but not 1920x798 as in the mkv. The black bars were added to the top and bottom to correct the resolution, while maintaining the original aspect ratio for the movie.

    Your other choices are to crop off some of the picture on the left and right and re-size what is left to 1920x1080, or just re-size to 1920x1080, although everything will look stretched.
    Quote Quote  



Similar Threads