VideoHelp Forum

Try DVDFab and download streaming video, copy, convert or make Blu-rays,DVDs! Download free trial !
+ Reply to Thread
Results 1 to 2 of 2
Thread
  1. Hi,
    i am new to video conversion. I am xilisoft Video converter to convert the video and i am success with it. But the converted video is not working in my mobile which is Sony XPERIA E. But another video which is already HD is working. So i checked the difference using MediaInfo and found the that codec is is different. My converted video have codec is isom and the working video have mp42.
    The information regarding the working video are the following (This is using media info)

    General
    Complete name : E:\Chubby Cheeks Rhyme with Lyrics and Actions - English Nurser.mp4
    Format : MPEG-4
    Format profile : Base Media / Version 2
    Codec ID : mp42
    File size : 7.82 MiB
    Duration : 1mn 47s
    Overall bit rate mode : Variable
    Overall bit rate : 612 Kbps
    Encoded date : UTC 2013-04-14 21:10:04
    Tagged date : UTC 2013-04-14 21:10:04
    gsst : 0
    gstd : 107275
    gssd : BB64FFB48HH1374139207175207
    gshh : r5---sn-ci5gup-h55e.c.youtube.com

    Video
    ID : 1
    Format : AVC
    Format/Info : Advanced Video Codec
    Format profile : Baseline@L3.0
    Format settings, CABAC : No
    Format settings, ReFrames : 1 frame
    Codec ID : avc1
    Codec ID/Info : Advanced Video Coding
    Duration : 1mn 47s
    Bit rate : 514 Kbps
    Maximum bit rate : 1 327 Kbps
    Width : 640 pixels
    Height : 360 pixels
    Display aspect ratio : 16:9
    Frame rate mode : Constant
    Frame rate : 24.000 fps
    Color space : YUV
    Chroma subsampling : 4:2:0
    Bit depth : 8 bits
    Scan type : Progressive
    Bits/(Pixel*Frame) : 0.093
    Stream size : 6.56 MiB (84%)
    Tagged date : UTC 2013-04-14 21:10:04

    Audio
    ID : 2
    Format : AAC
    Format/Info : Advanced Audio Codec
    Format profile : LC
    Codec ID : 40
    Duration : 1mn 47s
    Bit rate mode : Variable
    Bit rate : 96.0 Kbps
    Maximum bit rate : 105 Kbps
    Channel(s) : 2 channels
    Channel positions : Front: L R
    Sampling rate : 44.1 KHz
    Compression mode : Lossy
    Stream size : 1.23 MiB (16%)
    Title : IsoMedia File Produced by Google, 5-11-2011
    Encoded date : UTC 2013-04-14 21:10:04
    Tagged date : UTC 2013-04-14 21:10:04

    Kindly help me to convert like this. I need any other converter or codec for this.
    I tried using HD- h.264 video profile
    Quote Quote  
  2. hi,
    i found that isom is not the issue. This is because of bit rate. I just trid with low bit rate and video size (480x320). Now video is working in my phone
    Quote Quote  



Similar Threads