VideoHelp Forum


Try StreamFab All-in-One and rip streaming video! Or Try DVDFab and copy Blu-rays! or rip iTunes movies!
+ Reply to Thread
Results 1 to 3 of 3
Thread
  1. I'm currently using DGMPGDec, but is there a better program for the job? The file contains closed captions. After encoding the Audio (I plan on using ffmeg to encode the audio to aac, unless someone suggests something better) and Video I'm planning to mux them into a mkv. Will the closed captions still be attached or do I need to extract them and remux them?

    General
    Complete name : D:\video.mpg
    Format : MPEG-PS
    File size : 460 MiB
    Duration : 21mn 29s
    Overall bit rate mode : Variable
    Overall bit rate : 2 994 Kbps
    Writing library : (c) 1998-2010 Womble Multimedia, Inc. / MPEG Video Wizard DVD 5.0.0.114 (01/2010) / Jan 5 2011

    Video
    ID : 224 (0xE0)
    Format : MPEG Video
    Format version : Version 2
    Format profile : Main@Main
    Format settings, BVOP : Yes
    Format settings, Matrix : Custom
    Format settings, GOP : Variable
    Duration : 21mn 29s
    Bit rate mode : Variable
    Bit rate : 2 742 Kbps
    Maximum bit rate : 2 904 Kbps
    Width : 704 pixels
    Height : 480 pixels
    Display aspect ratio : 4:3
    Frame rate : 29.970 fps
    Standard : NTSC
    Color space : YUV
    Chroma subsampling : 4:2:0
    Bit depth : 8 bits
    Scan type : Interlaced
    Scan order : Top Field First
    Compression mode : Lossy
    Bits/(Pixel*Frame) : 0.271
    Time code of first frame : 00:00:00;00
    Time code source : Group of pictures header
    Stream size : 422 MiB (92%)
    Writing library : (c) 1998-2010 Womble Multimedia, Inc. / MPEG Video Wizard DVD 5.0.0.114 (01/2010) / Jan 5 2011

    Audio
    ID : 189 (0xBD)-128 (0x80)
    Format : AC-3
    Format/Info : Audio Coding 3
    Mode extension : CM (complete main)
    Format settings, Endianness : Big
    Muxing mode : DVD-Video
    Duration : 21mn 29s
    Bit rate mode : Constant
    Bit rate : 192 Kbps
    Channel(s) : 2 channels
    Channel positions : Front: L R
    Sampling rate : 48.0 KHz
    Bit depth : 16 bits
    Compression mode : Lossy
    Stream size : 29.5 MiB (6%)

    Text
    ID : 224 (0xE0)-CC1
    Format : EIA-608
    Muxing mode : A/53 / DTVCC Transport
    Muxing mode, more info : Muxed in Video #1
    Bit rate mode : Constant
    Stream size : 0.00 Byte (0%)

    Menu
    Last edited by ROBO731; 24th Jul 2013 at 20:35.
    Quote Quote  
  2. Main problem is that EIA-608 subtitles are part of the MPEG-2 user data and not a normal separate stream.
    You might want to read https://forum.videohelp.com/threads/341312-How-to-extract-Close-Captions-%28EIA-608%29-from-ts
    -> you have to extract and convert these EIA-608 subtitles to srt if you want to add them to an mkv file
    Quote Quote  



Similar Threads