VideoHelp Forum

Our website is made possible by displaying online advertisements to our visitors. Consider supporting us by disable your adblocker or Try ConvertXtoDVD and convert all your movies to DVD. Free trial ! :)
+ Reply to Thread
Results 1 to 8 of 8
Thread
  1. Member
    Join Date
    Jan 2007
    Location
    United States
    Search Comp PM
    Hi,

    I am trying to encode and .mp4 file (h.264). SVCD2DVD produces the following exception:

    Version: SVCD2DVD 2.5
    Build: 2.5.5030.0
    Type: System.AccessViolationException
    Source: SVCD2DVD
    Message: Attempted to read or write protected memory. This is often an indication that other memory is corrupt.
    InnerException:
    StackTrace: at x3284ccece41ee22b.xd3764d4f1e921081.AuthorDVD(xc76 139390a97debb xd2637df501625a82, x81974c36d7fdf1e1 xb4ee5c1758e9e983, Int32 xdc4f66b5011a3c9d, String[] x738d70b20493db82, Boolean x6b20cb17e8070d92, Boolean x3c21da9f928aac10)
    at x3284ccece41ee22b.xd3764d4f1e921081.x2e6504f39decc 498()
    at x3284ccece41ee22b.xd3764d4f1e921081.xf81783e1b359f fc3()
    at System.Threading.ThreadHelper.ThreadStart_Context( Object state)
    at System.Threading.ExecutionContext.Run(ExecutionCon text executionContext, ContextCallback callback, Object state)
    at System.Threading.ThreadHelper.ThreadStart()

    Any advice on how to fix this? Thank you.
    Quote Quote  
  2. Member
    Join Date
    Jan 2007
    Location
    United States
    Search Comp PM
    Here's the log data:

    ************************************************** ******************
    ************************ SYSTEM INFORMATION ************************
    ************************************************** ******************
    ***************************** SVCD2DVD *****************************
    Name: SVCD2DVD 2.5
    Title: 2.5
    Version: 2.5.5030.0
    Executable: C:\Program Files\BadgerIT\SVCD2DVD v2.5\SVCD2DVD.exe
    Executable size: 2.58 MB
    Executable size in bytes: 2711635
    Executable CreationTime: 1/28/2009 9:57:36 PM
    Executable LastWriteTime: 5/5/2013 10:00:32 PM
    Executable LastAccessTime: 5/5/2013 10:00:32 PM
    ************************* Operating System *************************
    Operating System: Microsoft Windows 7 Ultimate
    Service Pack: Service Pack 1
    Version : 6.1.7601
    Windows Directory : C:\Windows
    OSLanguage: 1033
    CodeSet: 1252
    CountryCode: 1
    Local: 0409
    Total Physical Memory: 3.24 GB
    Free Physical Memory: 1.85 GB
    Total Virtual Memory: 6.49 GB
    Free Virtual Memory: 4.93 GB
    ***************************** Computer *****************************
    Computer Manufacturer Name: HP-Pavilion
    Computer Model: KJ385AAR-ABA a6433w
    System Type: X86-based PC
    Computer Name: DESKTOP
    DomainRole: x2c3419cdc9b8e007
    Number Of Processors: 1
    User Name: DESKTOP\Admin
    ***************************** Processor ****************************
    Manufacturer: GenuineIntel
    Processor: Pentium(R) Dual-Core CPU E5200 @ 2.50GHz
    Description: x64 Family 6 Model 23 Stepping 6
    CPU Speed: 2.5GHz
    CPU FSB: 800MHz
    L2 Cache Size: 2.00 KB
    22:10:36: Logical CPUs: 2
    ***************************** Time Zone ****************************
    Time Zone: (UTC-06:00) Central Time (US & Canada)
    ****************************** VIDEO *******************************
    Name: NVIDIA GeForce 8400 GS
    Processor: GeForce 8400 GS
    Mode: 1680 x 1050 x 4294967296 colors
    Video Ram: 512 MB
    Status: OK
    ****************************** Drives *******************************
    DeviceID: C:
    FileSystem: NTFS
    Size: 465 GB
    FreeSpace: 75.2 GB
    ************************************************** ******************
    ********************* END OF SYSTEM INFORMATION ********************
    ************************************************** ******************
    ************************* ProjectMetaData **************************
    <?xml version="1.0" encoding="utf-8"?>
    <SVCD2DVD DateTime="6/27/2013 10:10:36 PM" Filename="NONE">
    <AssetSet>
    <Asset ID="8fcbd060-eafd-42c3-991c-b60486a5f505" Path="C:\Users\Admin\Desktop" Filename="2013_6_27_18_34_23.TS" />
    </AssetSet>
    <DVDStructure>
    <TitleSet Name="2013_6_27_18_34_23" PostCmd="" MenuButtonType="0">
    <MenuButton X1="0" Y1="0" X2="454" Y2="53" FontFamily="Tahoma" FontSize="28" FontStyle="3">2013_6_27_18_34_23</MenuButton>
    <Title Name="2013_6_27_18_34_23.TS" AssetID="8fcbd060-eafd-42c3-991c-b60486a5f505" MplexOffset="0" />
    </TitleSet>
    <DVDMenu Normal="-1" Highlight="-65536" Active="-16711681" ShowPlayAllButton="False" DSOffsetWidth="1" DSOffsetHeight="1" DSColor="0" DSOnOff="True" BackgroundImagePath="C:\Program Files\BadgerIT\SVCD2DVD v2.5\default.jpg" AudioPath="" />
    </DVDStructure>
    <Settings>
    <General InitialAssetFolder="" InitialDVDFolder="" OutputFolderName="SVCD2DVD_OUTPUT" InitialProjectFolder="" InitialMenuBackgroundFolder="" DeleteS2DFiles="False" UseDVDShrink="False" />
    <Menu AudioEncoding="Custom_mpa" DefaultCustomAudioPath="" DefaultCustomImagePath="" TVStandard="NTSC" FontFamily="Tahoma" FontSize="28" FontStyle="3" PlayAllText="Play All" Loop="True" ShowMenuStandardWarning="True" EncodeVideo2AudioDuration="False" MenuAspectRatio="AR_4_3" />
    <Process AudioEncoding="ac3" Chapters="Every 3 mins" SkipMPA48="True" SkipAC3="True" PanSan="False" MergeTitles="False" UsePulldown="True" PAL2NTSC="False" AVI2PASS="True" AVI2HALFD1="FS" NoBframes_FullME="False" UseCustomMatrices="False" IntraMatrix="" NonIntraMatrix="" TVOverscanPixels="0" UseThreads="True" ForceWS="False" SafeMaxBitRate="False" OrderAudioStreams="False" ProcessIfNavPacks="False" />
    <Program BINExtraction="vcdxrip" VCDGearFIX="False" FastAudioEncode="True" />
    <Burning BurningMethod="ImgBurn 2+" ImgBurnPath="C:\Program Files\ImgBurn\ImgBurn.exe" DVDDErase="True" DVDDClose="False" DVDDDontBurn="False" />
    </Settings>
    </SVCD2DVD>
    ************************* ProjectMetaData **************************
    Processing assets for DVD creation
    =================== AV Details ===================
    File Size: 19.5 MB
    file=C:\\Users\\Admin\\Desktop\\2013_6_27_18_34_23 .TS
    FormatName=mpegts
    Num_Frames=616
    DurationInSecs=21
    Duration=00:00:20.5
    VideoCodec=h264
    VideoFFSTNum=0
    Width=1920
    Height=1080
    Standard=NTSC
    BitRate=7974
    AudioStreamCount=1
    Audio1FFSTNum=1
    Audio1StreamID=[0x1100]
    Audio1SampleRate=48000
    Audio1Codec=aac
    Audio1BitRate=384
    Audio1Channels=2
    =================== AV Details ===================
    HDTV2DVDMPG: 9000kbs
    Pass 1/2: Processing 2013_6_27_18_34_23.TS
    Pass 2/2: Processing 2013_6_27_18_34_23.TS
    22:10:36: HDTV2DVDMPG: done.
    [2013_6_27_18_34_23] 22:10:36: FFmpeg version UNKNOWN, Copyright (c) 2000-2008 Fabrice Bellard, et al.
    [2013_6_27_18_34_23] 22:10:36: configuration: --disable-debug --disable-vhook --enable-avisynth --enable-gpl --enable-pthreads --enable-libfaad --enable-memalign-hack --enable-swscale --disable-devices
    [2013_6_27_18_34_23] 22:10:36: libavutil 49.12. 0 / 49.12. 0
    [2013_6_27_18_34_23] 22:10:36: libavcodec 52. 6. 0 / 52. 6. 0
    [2013_6_27_18_34_23] 22:10:36: libavformat 52.23. 1 / 52.23. 1
    [2013_6_27_18_34_23] 22:10:36: libavdevice 52. 1. 0 / 52. 1. 0
    [2013_6_27_18_34_23] 22:10:36: libswscale 0. 6. 1 / 0. 6. 1
    [2013_6_27_18_34_23] 22:10:36: built on Dec 7 2008 19:00:16, gcc: 4.3.0 20080305 (alpha-testing) mingw-20080502
    [2013_6_27_18_34_23] 22:10:36: Input #0, mpegts, from 'C:\Users\Admin\Desktop\2013_6_27_18_34_23.TS':
    [2013_6_27_18_34_23] 22:10:36: Duration: 00:00:20.57, start: 1.317756, bitrate: 7974 kb/s
    [2013_6_27_18_34_23] 22:10:36: Program 1
    [2013_6_27_18_34_23] 22:10:36: Stream #0.0[0x1011]: Video: h264, yuv420p, 1920x1080 [PAR 1:1 DAR 16:9], 29.97 tb(r)
    [2013_6_27_18_34_23] 22:10:36: Stream #0.1[0x1100]: Audio: aac, 48000 Hz, stereo, s16, 384 kb/s
    [2013_6_27_18_34_23] 22:10:36: Cannot read log file 'C:\Users\Admin\Desktop\2013_6_27_18_34_23.log-0.log' for pass-2 encoding: No such file or directory
    [2013_6_27_18_34_23] 22:10:36: FFmpeg version UNKNOWN, Copyright (c) 2000-2008 Fabrice Bellard, et al.
    [2013_6_27_18_34_23] 22:10:36: configuration: --disable-debug --disable-vhook --enable-avisynth --enable-gpl --enable-pthreads --enable-libfaad --enable-memalign-hack --enable-swscale --disable-devices
    [2013_6_27_18_34_23] 22:10:36: libavutil 49.12. 0 / 49.12. 0
    [2013_6_27_18_34_23] 22:10:36: libavcodec 52. 6. 0 / 52. 6. 0
    [2013_6_27_18_34_23] 22:10:36: libavformat 52.23. 1 / 52.23. 1
    [2013_6_27_18_34_23] 22:10:36: libavdevice 52. 1. 0 / 52. 1. 0
    [2013_6_27_18_34_23] 22:10:36: libswscale 0. 6. 1 / 0. 6. 1
    [2013_6_27_18_34_23] 22:10:36: built on Dec 7 2008 19:00:16, gcc: 4.3.0 20080305 (alpha-testing) mingw-20080502
    [2013_6_27_18_34_23] 22:10:36: Input #0, mpegts, from 'C:\Users\Admin\Desktop\2013_6_27_18_34_23.TS':
    [2013_6_27_18_34_23] 22:10:36: Duration: 00:00:20.57, start: 1.317756, bitrate: 7974 kb/s
    [2013_6_27_18_34_23] 22:10:36: Program 1
    [2013_6_27_18_34_23] 22:10:36: Stream #0.0[0x1011]: Video: h264, yuv420p, 1920x1080 [PAR 1:1 DAR 16:9], 29.97 tb(r)
    [2013_6_27_18_34_23] 22:10:36: Stream #0.1[0x1100]: Audio: aac, 48000 Hz, stereo, s16, 384 kb/s
    [2013_6_27_18_34_23] 22:10:36: Output #0, dvd, to 'NUL':
    [2013_6_27_18_34_23] 22:10:36: Stream #0.0: Video: mpeg2video, yuv420p, 720x480 [PAR 32:27 DAR 16:9], q=1-31, pass 1, 9000 kb/s, 29.97 tb(c)
    [2013_6_27_18_34_23] 22:10:36: Stream #0.1: Audio: ac3, 48000 Hz, stereo, s16, 448 kb/s
    [2013_6_27_18_34_23] 22:10:36: Stream mapping:
    [2013_6_27_18_34_23] 22:10:36: Stream #0.0 -> #0.0
    [2013_6_27_18_34_23] 22:10:36: Stream #0.1 -> #0.1
    [2013_6_27_18_34_23] 22:10:36: [mpeg2video @ 0x2cf3810]impossible bitrate constraints, this will fail
    [2013_6_27_18_34_23] 22:10:36: Error while opening codec for input stream #0.1
    22:10:38: Done: Processing assets for DVD creation
    Authoring DVD Folders
    22:10:38: Creating TitleSet # 1
    22:10:38: SVCD2DVD: DVDfolders
    Generating DVD folders please wait....
    22:10:38: -->: DVDFolders creating VTS
    22:10:38: -->: VTS 01
    22:10:38:
    DVD Folders: Processing C:\Users\Admin\Desktop\2013_6_27_18_34_23_S2D.mpg. ..
    22:10:38:
    Quote Quote  
  3. Are you using 2 pass? if so, set it to single pass and try it again.
    Dwight

    "A positive attitude may not solve all your problems, but it will annoy enough people to make it worth the effort."
    - Herm Albright

    www.martialconcepts.com
    Quote Quote  
  4. Member
    Join Date
    Jan 2007
    Location
    United States
    Search Comp PM
    Thanks. The same thing happens under single pass. FFmpeg stops working right away. I think the issue is the particular version of FFmpeg not being able to decode the AAC audio portion of the file. In the assets panel, for audio it says "aac 48KHz 0Kbps" (note the zero). I tried transcoding the file with VLC media player and the audio came out jittery. The mpeg-4 file that I am using was produced with the Hauppage 1512 PVR. After initially getting this error, I tried installing a couple of codec packages (G-spot and K-lite) to see if that might help. What do you think might be the solution to this problem?
    Quote Quote  
  5. Member
    Join Date
    Jan 2007
    Location
    United States
    Search Comp PM
    Here are the file details provided by G-Spot:

    Click image for larger version

Name:	codecs.PNG
Views:	259
Size:	207.1 KB
ID:	18562
    Quote Quote  
  6. Member
    Join Date
    Jan 2007
    Location
    United States
    Search Comp PM
    Here are the file properties (from Media Player Classic):

    General
    Complete name : C:\Users\Admin\Desktop\Lincoln.mp4
    Format : MPEG-4
    Format profile : Base Media / Version 2
    Codec ID : mp42
    File size : 2.57 GiB
    Duration : 45mn 37s
    Overall bit rate mode : Variable
    Overall bit rate : 8 066 Kbps
    Encoded date : UTC 2013-06-28 00:58:06
    Tagged date : UTC 2013-06-28 00:58:06
    Video
    ID : 1
    Format : AVC
    Format/Info : Advanced Video Codec
    Codec ID : avc1
    Codec ID/Info : Advanced Video Coding
    Duration : 45mn 37s
    Bit rate mode : Variable
    Bit rate : 7 970 Kbps
    Width : 1 920 pixels
    Height : 1 080 pixels
    Display aspect ratio : 16:9
    Frame rate mode : Constant
    Frame rate : 29.970 fps
    Bits/(Pixel*Frame) : 0.128
    Stream size : 2.54 GiB (99%)
    Language : English
    Encoded date : UTC 2013-06-28 00:58:11
    Tagged date : UTC 2013-06-28 00:58:11
    Audio
    ID : 2
    Format : AAC
    Format/Info : Advanced Audio Codec
    Format profile : LC
    Codec ID : 40
    Duration : 45mn 37s
    Bit rate mode : Variable
    Bit rate : 93.3 Kbps
    Maximum bit rate : 220 Kbps
    Channel(s) : 2 channels
    Channel positions : Front: L R
    Sampling rate : 48.0 KHz
    Compression mode : Lossy
    Stream size : 30.5 MiB (1%)
    Language : English
    Encoded date : UTC 2013-06-28 00:58:11
    Tagged date : UTC 2013-06-28 00:58:11
    Quote Quote  
  7. I have had good luck with Avidemux to correct problems like this. Hopefully that might work properly for your audio conversion.
    Dwight

    "A positive attitude may not solve all your problems, but it will annoy enough people to make it worth the effort."
    - Herm Albright

    www.martialconcepts.com
    Quote Quote  
  8. Member
    Join Date
    Jan 2007
    Location
    United States
    Search Comp PM
    It's strange because SVCD2DVD was able to handle other mp4 files with AAC audio. I may just use VideoRedo to convert the files to mpeg-2, before authoring to DVD with SVCD2DVD & ImgBurn. VideoRedo does the job with these Hauppage PVR files, but takes longer than SVCD2DVD & FFmpeg did.
    Quote Quote  



Similar Threads