VideoHelp Forum

Our website is made possible by displaying online advertisements to our visitors. Consider supporting us by disable your adblocker or Try ConvertXtoDVD and convert all your movies to DVD. Free trial ! :)
+ Reply to Thread
Page 1 of 3
1 2 3 LastLast
Results 1 to 30 of 61
Thread
  1. Hi. I used Youtube Downloader HD for downloading videos from Youtube. Today is something wrong. This utility stopped working. I tried GetFLV, was successful, but downloaded video is unplayable (in GetFLV no sound). Maybe some countermeasure from YouTube ? Has anybody the same experience ? Thanks.
    Quote Quote  
  2. Like the video in this post?

    https://forum.videohelp.com/threads/356738-Mp4-Video-File-Has-No-Sound?p=2248038&viewfu...=1#post2248038

    There have always been some videos on Youtube that don't download easily. Youtube uses more secure methods for delivery of some videos.
    Quote Quote  
  3. Member
    Join Date
    Nov 2002
    Location
    United States
    Search Comp PM
    I use Greasemonkey for Firefox and YouTube HD Suite 3.5.5 which automatically plays the best video and shows all the file types available and an option to download them.

    What is the link to the video?
    Quote Quote  
  4. For example this video. A few days ago it was easy to download it. Now it cannot be done.

    http://www.youtube.com/watch?v=_ynDMQkNAB0

    My friend recommend me plugin to firefox called FlashGot which is easy to use and works ok.
    Quote Quote  
  5. Originally Posted by JN View Post
    For example this video. A few days ago it was easy to download it. Now it cannot be done.
    No problems with Internet Download Manager.




    Although it was updated recently...

    What's new in version 6.16 Build 2?

    (Released: Jun 14, 2013)
    • Added a workaround for youtube changes
    Last edited by mike20021969; 16th Jun 2013 at 04:48.
    Quote Quote  
  6. Freemake Video Downloader is updated regularly and one to keep in the toolbox.
    Quote Quote  
  7. Download helper also can download it. (in several resolutions)

    I stand corrected. It looked like it could download but it wouldn't.
    Last edited by TreeTops; 16th Jun 2013 at 09:56. Reason: I tried to download but download helper wouldn't do it.
    Quote Quote  
  8. Originally Posted by TreeTops View Post
    Download helper also can download it. (in several resolutions)
    Did you successfully download one of them? I tried with Download Helper -- it saw the different resolutions and containers and let me select one, and select where to write the file. But the downloaded file was empty.
    Quote Quote  
  9. Download helper failed. Now I am having problems even viewing the vid on youtube. Says flashplayer crashed.
    Quote Quote  
  10. Member
    Join Date
    Sep 2008
    Location
    Spain
    Search Comp PM
    I use Youtube Center in Chrone and it adds a nice download option to select every quality.
    Quote Quote  
  11. I verified that Freemake Video Downloader can download the video in post #4.
    Quote Quote  
  12. Member
    Join Date
    Nov 2002
    Location
    United States
    Search Comp PM
    You didn't mention that it was a VEVO video that you probably have to have a paid subscription for (and still might not be able to download).

    Replay Media Catcher 4 will download it.

    EDIT: It downloaded a 46MB MP4 file but the header is screwed up and it will not open in MPC-HC or in Virtualdub.

    EDIT:

    General
    Complete name : F:\My Recordings\01\YouTube - ff29c331090d001d.mp4
    Format : GZip
    File size : 46.1 MiB

    I downloaded the 720p version because the 1080p version just wanted to download a text file.

    Seems the site used Gzip compression on the mp4 file and I don't have a clue what to do with the Gzip mp4.
    Last edited by DarrellS; 17th Jun 2013 at 22:23.
    Quote Quote  
  13. I just downloaded it. I have problems downloading blocked VEVO videos at the moment too, but I think I just found a workaround. The file has 83,5 MB. Do you want this specific file or the workflow?
    MediaInfo Lite told me that:
    General
    Complete name : C:\Users\x\Downloads\Caveman - In the City.mp4
    Format : MPEG-4
    Format profile : Base Media / Version 2
    Codec ID : mp42
    File size : 83.5 MiB
    Duration : 4mn 9s
    Overall bit rate mode : Variable
    Overall bit rate : 2 811 Kbps
    Encoded date : UTC 2013-05-17 00:26:29
    Tagged date : UTC 2013-05-17 00:26:29
    gsst : x
    gstd : x
    gssd : x
    gshh : x

    Video
    ID : 1
    Format : AVC
    Format/Info : Advanced Video Codec
    Format profile : High@L4.0
    Format settings, CABAC : Yes
    Format settings, ReFrames : 1 frame
    Codec ID : avc1
    Codec ID/Info : Advanced Video Coding
    Duration : 4mn 9s
    Bit rate : 2 616 Kbps
    Maximum bit rate : 7 175 Kbps
    Width : 1 920 pixels
    Height : 1 080 pixels
    Display aspect ratio : 16:9
    Frame rate mode : Constant
    Frame rate : 23.976 fps
    Color space : YUV
    Chroma subsampling : 4:2:0
    Bit depth : 8 bits
    Scan type : Progressive
    Bits/(Pixel*Frame) : 0.053
    Stream size : 77.7 MiB (93%)
    Tagged date : UTC 2013-05-17 00:26:36

    Audio
    ID : 2
    Format : AAC
    Format/Info : Advanced Audio Codec
    Format profile : LC
    Codec ID : 40
    Duration : 4mn 9s
    Bit rate mode : Variable
    Bit rate : 192 Kbps
    Maximum bit rate : 203 Kbps
    Channel(s) : 2 channels
    Channel positions : Front: L R
    Sampling rate : 44.1 KHz
    Compression mode : Lossy
    Stream size : 5.71 MiB (7%)
    Title : IsoMedia File Produced by Google, 5-11-2011
    Encoded date : UTC 2013-05-17 00:26:34
    Tagged date : UTC 2013-05-17 00:26:36

    Don't know specific things that are individual and wrote "x" in it

    Klaus from bavaria, Germany
    Quote Quote  
  14. Maybe the program you used to download it would be helpful.
    Quote Quote  
  15. I use Firefox with Stealthy and used savefrom.net
    Quote Quote  
  16. Member leghorn's Avatar
    Join Date
    Apr 2007
    Location
    Germany
    Search Comp PM
    According to run-time and thumbnail, this (http://www.youtube.com/watch?v=ZpLtJyXyJUs) should be just the video you want to have. I downloaded the 1080p of it with JDownloader. The video plays fine with full A/V. Here's the MediaInfo log:

    General
    Complete name : Caveman - In the City(1080p_H.264-AAC).mp4
    Format : MPEG-4
    Format profile : Base Media / Version 2
    Codec ID : mp42
    File size : 81.8 MiB
    Duration : 4mn 9s
    Overall bit rate mode : Variable
    Overall bit rate : 2 754 Kbps
    Encoded date : UTC 2013-05-23 21:15:53
    Tagged date : UTC 2013-05-23 21:15:53
    gsst : 0
    gstd : 249381
    gssd : B59108007HH1371587053832555
    gshh : r4---sn-uxaxjva0hc0n-nm4e.c.youtube.com

    Video
    ID : 1
    Format : AVC
    Format/Info : Advanced Video Codec
    Format profile : High@L4.0
    Format settings, CABAC : Yes
    Format settings, ReFrames : 1 frame
    Codec ID : avc1
    Codec ID/Info : Advanced Video Coding
    Duration : 4mn 9s
    Bit rate : 2 560 Kbps
    Maximum bit rate : 6 693 Kbps
    Width : 1 920 pixels
    Height : 1 080 pixels
    Display aspect ratio : 16:9
    Frame rate mode : Constant
    Frame rate : 23.976 fps
    Color space : YUV
    Chroma subsampling : 4:2:0
    Bit depth : 8 bits
    Scan type : Progressive
    Bits/(Pixel*Frame) : 0.051
    Stream size : 76.1 MiB (93%)
    Tagged date : UTC 2013-05-23 21:15:57

    Audio
    ID : 2
    Format : AAC
    Format/Info : Advanced Audio Codec
    Format profile : LC
    Codec ID : 40
    Duration : 4mn 9s
    Bit rate mode : Variable
    Bit rate : 192 Kbps
    Maximum bit rate : 203 Kbps
    Channel(s) : 2 channels
    Channel positions : Front: L R
    Sampling rate : 44.1 KHz
    Compression mode : Lossy
    Stream size : 5.71 MiB (7%)
    Title : IsoMedia File Produced by Google, 5-11-2011
    Encoded date : UTC 2013-05-23 21:15:55
    Tagged date : UTC 2013-05-23 21:15:57


    Like I mentioned before, the link is different but the video should be the same. Also...no country restrictions
    Das Leben ist eine Nebelwand voller Rasierklingen. (C. Bukowski)
    Quote Quote  
  17. Member Budman1's Avatar
    Join Date
    Jul 2012
    Location
    NORTHWEST ILLINOIS, USA
    Search Comp PM
    I used Free Real Media downloader and it downloads fine:
    Click image for larger version

Name:	ScreenHunter_08 Jun. 22 23.47.jpg
Views:	2148
Size:	39.7 KB
ID:	18456

    Plays audio fine with specs as shown:
    Click image for larger version

Name:	ScreenHunter_08 Jun. 22 23.46.jpg
Views:	2104
Size:	74.9 KB
ID:	18457
    Quote Quote  
  18. Member
    Join Date
    Jul 2010
    Location
    Akron, Ohio
    Search PM
    This video is giving me problems:
    http://www.youtube.com/watch?v=8hhu-OyHqZM
    Quote Quote  
  19. Member
    Join Date
    Jul 2010
    Location
    Akron, Ohio
    Search PM
    Nope. Video is "NULL"
    Quote Quote  
  20. Member Budman1's Avatar
    Join Date
    Jul 2012
    Location
    NORTHWEST ILLINOIS, USA
    Search Comp PM
    The video downloads from YouTube with Real Media Downloader (comes with free version of Real Player even though I do not use) but if you try to down load with several downloaders and especially if you wish a larger size, it shows error and fails:

    Click image for larger version

Name:	ScreenHunter_11 Jun. 24 22.20.jpg
Views:	1980
Size:	34.4 KB
ID:	18494

    Click image for larger version

Name:	ScreenHunter_09 Jun. 24 22.20.jpg
Views:	1985
Size:	29.2 KB
ID:	18495
    Quote Quote  
  21. Originally Posted by CyberTootie View Post
    Nope. Video is "NULL"
    try http://www.masstube.cl/
    Quote Quote  
  22. Originally Posted by CyberTootie View Post
    This video is giving me problems:
    http://www.youtube.com/watch?v=8hhu-OyHqZM
    Freemake Video Downloader gets it easily. It gives you eight different choices for that video. Be careful installing it, though. You'll get several chances to screw up and install crap along with the program itself.
    Quote Quote  
  23. Member
    Join Date
    Jul 2010
    Location
    Akron, Ohio
    Search PM
    ...you were saying?

    If I had to guess they are testing a new protection scheme with some Vevo videos, this being one of them.
    Image Attached Thumbnails Click image for larger version

Name:	Untitled-1.jpg
Views:	446
Size:	39.1 KB
ID:	18538  

    Quote Quote  
  24. Originally Posted by CyberTootie View Post
    If I had to guess they are testing a new protection scheme with some Vevo videos
    Yes. It will be a while before all the download tools are updated.
    Quote Quote  
  25. Member
    Join Date
    Jul 2010
    Location
    Akron, Ohio
    Search PM
    Quote Quote  
  26. Originally Posted by CyberTootie View Post
    ...you were saying?
    I was saying I had the choice of downloading 8 different versions and downloaded the highest resolution one successfully. Using the Firefox browser. Should I make it available for you somewhere? It's 33.2 MB.
    Image Attached Thumbnails Click image for larger version

Name:	STP1.jpg
Views:	1997
Size:	43.0 KB
ID:	18543  

    Quote Quote  
  27. did you try MassTube http://www.masstube.cl/ ?

    Changelog (11.1.0.626):

    ■Improved YouTube video extraction method.
    ■Improved decryption algorithm for Vevo videos and similar of previous Beta 1.
    ■Fixed all known errors/bugs of previous Beta 1.
    ■Fixed various bugs of old versions of the program.
    Quote Quote  
  28. Originally Posted by manono View Post
    I was saying I had the choice of downloading 8 different versions and downloaded the highest resolution one successfully. Using the Firefox browser.
    Freemake doesn't work here. It shows all the different videos but none of them will download. I just get an error message after a bit: "Error: no downloadable video available at this URL"
    Quote Quote  



Similar Threads