VideoHelp Forum

Try DVDFab and download streaming video, copy, convert or make Blu-rays,DVDs! Download free trial !
+ Reply to Thread
Results 1 to 2 of 2
Thread
  1. Hey guys, I need help fixing my MPC player settings or more. Would usually ask my friend for technical stuff, but he's far out in Japan until September, so he can't do jack to help right now. I'm trying to figure this out myself now, but need assistance.

    Apparently I tried out a Wireless VGA stick, and it seems to have messed everything up. It's called the Vianect Devolo (DO NOT BUY), and it's crap. The software it came with messed up all my settings, or codecs, whatever it is, and video playback above 720p now stutters like a b***h.

    I'll post the video details here so we might find a crossreference to what exactly is wrong.

    Format : Matroska
    File size : 5.67 GiB
    Duration : 1h 54mn
    Overall bit rate : 7 103 Kbps
    Movie name : Summer Wars
    Encoded date : UTC 2010-03-15 19:44:11
    Writing application : mkvmerge v3.2.0 ('Beginnings') built on Feb 12 2010 16:46:17
    Writing library : libebml v0.7.9 + libmatroska v0.8.1
    Cover : Yes / Yes / Yes / Yes / Yes / Yes / Yes / Yes / Yes / Yes / Yes / Yes / Yes / Yes / Yes / Yes / Yes
    Video
    ID : 1
    Format : AVC
    Format/Info : Advanced Video Codec
    Format profile : High@L5.1
    Format settings, CABAC : Yes
    Format settings, ReFrames : 16 frames
    Muxing mode : Container profile=Unknown@5.1
    Codec ID : V_MPEG4/ISO/AVC
    Duration : 1h 54mn
    Width : 1 920 pixels
    Height : 1 080 pixels
    Display aspect ratio : 16:9
    Frame rate : 23.976 fps
    Color space : YUV
    Chroma subsampling : 4:2:0
    Bit depth : 8 bits
    Scan type : Progressive
    Title : Commie
    Writing library : x264 core 88 r1471 1144615
    Encoding settings : cabac=1 / ref=16 / deblock=1:1:1 / analyse=0x3:0x133 / me=umh / subme=9 / psy=1 / psy_rd=0.70:0.00 / mixed_ref=1 / me_range=24 / chroma_me=1 / trellis=0 / 8x8dct=1 / cqm=0 / deadzone=21,11 / fast_pskip=1 / chroma_qp_offset=-2 / threads=12 / sliced_threads=0 / nr=0 / decimate=1 / mbaff=0 / constrained_intra=0 / bframes=16 / b_pyramid=2 / b_adapt=2 / b_bias=0 / direct=3 / wpredb=1 / wpredp=2 / keyint=250 / keyint_min=25 / scenecut=40 / intra_refresh=0 / rc=crf / mbtree=0 / crf=18.0 / qcomp=0.60 / qpmin=10 / qpmax=51 / qpstep=4 / ip_ratio=1.40 / pb_ratio=1.30 / aq=1:0.80
    Language : Japanese
    Audio #1
    ID : 2
    Format : FLAC
    Format/Info : Free Lossless Audio Codec
    Codec ID : A_FLAC
    Duration : 1h 54mn
    Bit rate mode : Variable
    Channel(s) : 6 channels
    Sampling rate : 48.0 KHz
    Bit depth : 16 bits
    Title : 5.1 Lossless
    Writing library : libFLAC 1.2.1 (UTC 2007-09-17)
    Language : Japanese
    Audio #2
    ID : 3
    Format : AC-3
    Format/Info : Audio Coding 3
    Mode extension : CM (complete main)
    Codec ID : A_AC3
    Duration : 1h 54mn
    Bit rate mode : Constant
    Bit rate : 640 Kbps
    Channel(s) : 2 channels
    Channel positions : Front: L R
    Sampling rate : 48.0 KHz
    Bit depth : 16 bits
    Stream size : 523 MiB (9%)
    Title : Commentary
    Language : Japanese
    Text #1
    ID : 4
    Format : ASS
    Codec ID : S_TEXT/ASS
    Codec ID/Info : Advanced Sub Station Alpha
    Title : UTW-TMD Styled Subtitles
    Language : English
    Text #2
    ID : 5
    Format : ASS
    Codec ID : S_TEXT/ASS
    Codec ID/Info : Advanced Sub Station Alpha
    Title : UTW-TMD Hard Core Typesetting
    Language : English
    Text #3
    ID : 6
    Format : ASS
    Codec ID : S_TEXT/ASS
    Codec ID/Info : Advanced Sub Station Alpha
    Title : UTW-TMD Unstyled Subtitles
    Language : English
    Menu
    00:00:00.000 : en:00:00:00.000
    00:00:49.049 : en:00:00:49.049
    00:05:28.537 : en:00:05:28.537
    00:09:51.549 : en:00:09:51.549
    00:14:44.717 : en:00:14:44.717
    00:17:40.184 : en:00:17:40.184
    00:19:39.261 : en:00:19:39.261
    00:22:59.253 : en:00:22:59.253
    00:24:34.056 : en:00:24:34.056
    00:28:42.721 : en:00:28:42.721
    00:31:23.965 : en:00:31:23.965
    00:34:00.747 : en:00:34:00.747
    00:38:04.991 : en:00:38:04.991
    00:43:12.757 : en:00:43:12.757
    00:47:35.227 : en:00:47:35.227
    00:53:39.133 : en:00:53:39.133
    00:56:57.956 : en:00:56:57.956
    00:58:29.131 : en:00:58:29.131
    01:01:27.350 : en:01:01:27.350
    01:03:58.251 : en:01:03:58.251
    01:10:04.492 : en:01:10:04.492
    01:14:55.241 : en:01:14:55.241
    01:18:52.519 : en:01:18:52.519
    01:21:52.366 : en:01:21:52.366
    01:24:52.504 : en:01:24:52.504
    01:29:37.622 : en:01:29:37.622
    01:31:04.668 : en:01:31:04.668
    01:33:55.880 : en:01:33:55.880
    01:40:06.209 : en:01:40:06.209
    01:46:11.365 : en:01:46:11.365
    01:48:59.908 : en:01:48:59.908
    Need to find where I can extract a list of all my settings so I can actually show you a status of the MPC settings, where do I find that?

    I have MPC with Shark007's Codecs x64 and reinstalled DivX, to no avail, DXVA does not show up under external filters, do not know if it is important.

    EDIT: Deinstalled Codec & MPC, reinstalled MPC-HC x64 1.6.5.6366 (744df1c) & Shark007 Codecs x32 & x64 v3.9.7

    The previous video works now, the next one doesn't. I don't understand my PC anymore.

    General
    Unique ID: 243363731232592325449052043044056128536
    (0xB716265516F61CCF9EE87E24F982DC18)
    Complete name : (removed)
    Format: Matroska
    Format version: Version 2
    File size: 7.91
    GiB Duration: 1h 42mn
    Overall bit rate mode: Variable
    Overall bit rate: 11.0 Mbps
    Encoded date: UTC 2011-07-07 10:30:35
    Writing application: mkvmerge v4.8.0 ('I Got The...') built on May 24 2011 03:12:58
    Writing library: libebml v1.2.0 + libmatroska v1.1.0

    Video ID: 1
    Format: AVC
    Format/Info: Advanced Video Codec
    Format profile: High@L4.1
    Format settings, CABAC: Yes
    Format settings, ReFrames: 4 frames
    Codec ID: V_MPEG4/ISO/AVC
    Duration: 1h 42mn
    Bit rate mode: Variable
    Bit rate: 9 175 Kbps
    Maximum bit rate: 40.0
    Mbps Width: 1 920 pixels
    Height: 794 pixels
    Display aspect ratio: 2.40:1
    Frame rate mode: Constant
    Frame rate: 23.976 fps
    Color space: YUV
    Chroma subsampling: 4:2:0
    Bit depth: 8 bits
    Scan type: Progressive
    Bits/(Pixel*Frame): 0.251
    Stream size: 6.43 GiB
    (81%)
    Title: (removed)
    Writing library: x264 core 115 r2008 4c552d8
    Encoding settings: cabac=1 / ref=5 / deblock=1:0:0 / analyse=0x3:0x133 / me=umh / subme=7 / psy=1
    / psy_rd=1.00:0.00 / mixed_ref=1 / me_range=32 / chroma_me=1 / trellis=2 /
    8x8dct=1 / cqm=0 / deadzone=21,11 / fast_pskip=1 / chroma_qp_offset=-2 /
    threads=6 / sliced_threads=0 / slices=4 / nr=0 / decimate=1 / interlaced=0 /
    bluray_compat=1 / constrained_intra=0 / bframes=3 / b_pyramid=1 / b_adapt=2 /
    b_bias=0 / direct=1 / weightb=1 / open_gop=1 / weightp=1 / keyint=240 /
    keyint_min=23 / scenecut=40 / intra_refresh=0 / rc_lookahead=40 / rc=2pass /
    mbtree=1 / bitrate=9175 / ratetol=1.0 / qcomp=0.60 / qpmin=10 / qpmax=51 /
    qpstep=4 / cplxblur=20.0 / qblur=0.5 / vbv_maxrate=40000 / vbv_bufsize=40000 /
    nal_hrd=vbr / ip_ratio=1.40 /
    aq=1:1.00
    Language: Italian
    Default: Yes
    Forced: No


    Audio
    #1
    ID: 2
    Format: AC-3
    Format/Info: Audio Coding 3
    Mode extension: CM (complete main)
    Format settings, Endianness: Big Codec
    ID: A_AC3
    Duration: 1h 42mn
    Bit rate mode: Constant
    Bit rate: 640
    Kbps Channel(s): 6 channels
    Channel positions: Front: L C R, Side: L R, LFE
    Sampling rate: 48.0 KHz
    Bit depth: 16 bits
    Compression mode: Lossy
    Stream size: 470 MiB (6%)
    Title: Ita Ac3
    5.1Language: Italian
    Default: Yes
    Forced: No

    Audio #2
    ID: 3
    Format: AC-3
    Format/Info: Audio Coding 3
    Mode extension: CM (complete main)
    Format settings, Endianness: Big Codec
    ID: A_AC3
    Duration: 1h 42mn
    Bit rate mode: Constant
    Bit rate: 640 Kbps
    Channel(s): 6 channels
    Channel positions: Front: L C R, Side: L R, LFE
    Sampling rate: 48.0 KHz
    Bit depth: 16 bits
    Compression mode: Lossy
    Stream size : 470 MiB (6%)
    Title: Eng Ac3
    5.1 Language: English
    Default: No
    Forced: No

    Audio #3
    ID: 4
    Format: AC-3
    Format/Info: Audio Coding 3
    Mode extension: CM (complete main)
    Format settings, Endianness: Big Codec
    ID: A_AC3
    Duration: 1h 42mn
    Bit rate mode: Constant
    Bit rate: 576 Kbps
    Channel(s): 6 channels
    Channel positions: Front: L C R, Side: L R, LFE
    Sampling rate: 48.0 KHz
    Bit depth: 16 bits
    Compression mode: Lossy
    Stream size: 423 MiB (5%)
    Title: Esp Ac3 5.1
    Language: Spanish
    Default: No
    Forced: No
    Last edited by Klappstuhl; 27th Jan 2013 at 10:14.
    Quote Quote  
  2. While playing the video in MPC right click on the player window and hover over Filters. That will show you what filters are being used to play the video. Selecting a filter will bring up a dialog box where you may be able to change options.

    In MPC select View -> Options -> Internal Filters. Enable or disable Source Filters or Transform Filters as necessary.

    Also check View -> Options -> Playback -> Output. Try the different DirectShow renders. Especially the EVR renderers.

    If you're not using MPCHC you should switch to that. It's much more up to date.
    Quote Quote  



Similar Threads