VideoHelp Forum

Try DVDFab and download streaming video, copy, convert or make Blu-rays,DVDs! Download free trial !
+ Reply to Thread
Results 1 to 6 of 6
Thread
  1. So I bought the new BDBOX of the Fate/Zero anime series which cost me a SHITLOAD of money (from here: http://www.fatezerousa.com/product-br-disc-box-2.php). I already had the DVDs but I wanted to get the 1080p versions so I could edit them since this anime's animation is so freaking amazing.
    I had My BDs ripped by a friend and got a bunch of .mkv files which I'm okay with. I used MkvToMp4 to convert them to .mp4 and edit them in Vegas Movie Studio HD Platinum 11.0 ... I insert the files in the trimmer after the conversion but it's all weirdish. Some scenes just play over and over, some others just don't at all, flashes etc. are removed! I get them on the timeline and RAM preview but they are just uneditable.
    The converted mp4s are all fine though when I play them in any players ! Can anyone help please?


    These are the project properties set in Vegas Movie Studio HD Platinum 11.0 when I try to edit the files :
    HD 1080-60i (1920x1080; 29,970 fps)


    Here is some info on the mp4 files from mediainfo:




    General
    Complete name : C:\Users\lenovo\Desktop\Editing\New BD Orders\Fate Zero\BDBOX II RIP\Fate Zero NCOP2.mp4
    Format : MPEG-4
    Format profile : Base Media
    Codec ID : isom
    File size : 65.8 MiB
    Duration : 1mn 33s
    Overall bit rate mode : Variable
    Overall bit rate : 5 926 Kbps
    Movie name : Fate Zero NCOP2
    Encoded date : UTC 2012-12-27 16:09:27
    Tagged date : UTC 2012-12-27 16:09:28
    Writing application : MkvToMp4 [www.mkvtomp4.ru] version 0.222
    hdvd : 2
    stik : 0

    Video
    ID : 1
    Format : AVC
    Format/Info : Advanced Video Codec
    Format profile : High@L4.1
    Format settings, CABAC : Yes
    Format settings, ReFrames : 4 frames
    Codec ID : avc1
    Codec ID/Info : Advanced Video Coding
    Duration : 1mn 33s
    Bit rate : 5 729 Kbps
    Maximum bit rate : 18.4 Mbps
    Width : 1 920 pixels
    Height : 1 080 pixels
    Display aspect ratio : 16:9
    Frame rate mode : Constant
    Frame rate : 23.976 fps
    Color space : YUV
    Chroma subsampling : 4:2:0
    Bit depth : 8 bits
    Scan type : Progressive
    Bits/(Pixel*Frame) : 0.115
    Stream size : 63.5 MiB (97%)
    Writing library : x264 core 125 r2208 d9d2288
    Encoding settings : cabac=1 / ref=4 / deblock=1:0:0 / analyse=0x3:0x113 / me=hex / subme=10 / psy=1 / psy_rd=1.00:0.00 / mixed_ref=1 / me_range=16 / chroma_me=1 / trellis=2 / 8x8dct=1 / cqm=0 / deadzone=21,11 / fast_pskip=1 / chroma_qp_offset=-2 / threads=3 / lookahead_threads=1 / sliced_threads=0 / nr=0 / decimate=1 / interlaced=0 / bluray_compat=0 / constrained_intra=0 / bframes=5 / b_pyramid=2 / b_adapt=2 / b_bias=0 / direct=3 / weightb=1 / open_gop=0 / weightp=2 / keyint=230 / keyint_min=23 / scenecut=40 / intra_refresh=0 / rc_lookahead=40 / rc=crf / mbtree=1 / crf=18.0 / qcomp=0.60 / qpmin=15 / qpmax=23 / qpstep=4 / ip_ratio=1.40 / aq=1:1.00
    Language : English
    Encoded date : UTC 2012-12-27 16:09:27
    Tagged date : UTC 2012-12-27 16:09:28

    Audio
    ID : 2
    Format : AAC
    Format/Info : Advanced Audio Codec
    Format profile : LC
    Codec ID : 40
    Duration : 1mn 33s
    Bit rate mode : Variable
    Bit rate : 192 Kbps
    Maximum bit rate : 218 Kbps
    Channel(s) : 2 channels
    Channel positions : Front: L R
    Sampling rate : 48.0 KHz
    Compression mode : Lossy
    Stream size : 2.16 MiB (3%)
    Language : English
    Encoded date : UTC 2012-12-27 16:09:28
    Tagged date : UTC 2012-12-27 16:09:28
    Quote Quote  
  2. aBigMeanie aedipuss's Avatar
    Join Date
    Oct 2005
    Location
    666th portal
    Search Comp PM
    well your project properties are wrong. they should be set to 1920x1080 23.976 progressive.
    --
    "a lot of people are better dead" - prisoner KSC2-303
    Quote Quote  
  3. Did that. Same problem!
    I rendered the file and I'm uploading it here right now, watch it please. Note: wherever its lagging, there should flashes there.
    Watch THIS video to see how it SHOULD be: watch from 0:18 to 0:50 ! http://www.youtube.com/watch?v=PVMqG5n6oo8
    Image Attached Files
    Quote Quote  
  4. I tried the files in After Effects and they work just fine in there. I can't understand what the problem is with Vegas Movie!
    Quote Quote  
  5. It is mpeg2 file, not sure you try to put it into mp4 container, use TS video file ( use tsmuxer ) . If TsMuxer will not load audio, load it separately into Vegas , but in some container also! , Vegas might not load separate stream.
    Quote Quote  
  6. Problem solved.
    I did what I usually do in hard times, which is using Handbrake.
    Converted the .mkv files with Handbrake and everything works like a charm.
    Thank you guys very much for replying, reading my messages and attempting to find a solution.
    Wishing you a great New Year's celebration and happiness,health and prosperity!
    Quote Quote  



Similar Threads