VideoHelp Forum

Our website is made possible by displaying online advertisements to our visitors. Consider supporting us by disable your adblocker or Try ConvertXtoDVD and convert all your movies to DVD. Free trial ! :)
+ Reply to Thread
Results 1 to 2 of 2
Thread
  1. Member
    Join Date
    Jan 2008
    Location
    United States
    Search PM
    I cannot get my files to show up in the transcode window it just says that if you can read this message transcode might not work.
    What follows is from MediaInfo:
    Format : MPEG-4
    Format profile : Base Media / Version 2
    Codec ID : mp42
    File size : 25.0 MiB
    Duration : 3mn 52s
    Overall bit rate : 903 Kbps
    Encoded date : UTC 2012-04-02 12:55:48
    Tagged date : UTC 2012-04-02 12:55:57
    Video
    ID : 1
    Format : AVC
    Format/Info : Advanced Video Codec
    Format profile : Baseline@L3.0
    Format settings, CABAC : No
    Format settings, ReFrames : 2 frames
    Format settings, GOP : M=1, N=30
    Codec ID : avc1
    Codec ID/Info : Advanced Video Coding
    Duration : 3mn 52s
    Bit rate : 702 Kbps
    Width : 640 pixels
    Height : 360 pixels
    Display aspect ratio : 16:9
    Frame rate mode : Constant
    Frame rate : 29.970 fps
    Color space : YUV
    Chroma subsampling : 4:2:0
    Bit depth : 8 bits
    Scan type : Progressive
    Bits/(Pixel*Frame) : 0.102
    Stream size : 19.5 MiB (78%)
    Language : English
    Encoded date : UTC 2012-04-02 12:55:44
    Tagged date : UTC 2012-04-02 12:55:57
    Color primaries : BT.601 NTSC
    Transfer characteristics : BT.709
    Matrix coefficients : BT.601
    Audio
    ID : 2
    Format : AAC
    Format/Info : Advanced Audio Codec
    Format profile : LC
    Codec ID : 40
    Duration : 3mn 52s
    Source duration : 3mn 52s
    Bit rate mode : Constant
    Bit rate : 128 Kbps
    Channel(s) : 1 channel
    Channel positions : Front: C
    Sampling rate : 44.1 KHz
    Compression mode : Lossy
    Stream size : 3.58 MiB (14%)
    Source stream size : 3.58 MiB (14%)
    Language : English
    Encoded date : UTC 2012-04-02 12:55:44
    Tagged date : UTC 2012-04-02 12:55:57
    I have many of these that I am trying to put on bluray hopefully without to much alteration in the resolution(I know it's low).
    Can anyone tell me what I am missing?
    Last edited by Onceler2; 9th Nov 2012 at 17:34.
    Quote Quote  
  2. Member
    Join Date
    Jan 2008
    Location
    United States
    Search PM
    I should add that I have tried uninstalling then reinstalling these programs: AVISynth, FFDshow,multiAVCHD(with update).
    Am I posting in the wrong forum? Should this be in video conversion?
    Quote Quote  



Similar Threads