VideoHelp Forum


Try DVDFab Video Downloader and rip Netflix video! Or Try DVDFab and copy Blu-rays! or rip iTunes movies!
+ Reply to Thread
Results 1 to 6 of 6
Thread
  1. Have recently started using FFmpeg instead of rtmpdump. FFmpeg is working fine for me, i've got some nice downloads from svt.se but i also got this error on some specific shows or parts. I have tried using this installation guide (http://www.wikihow.com/Install-FFmpeg-on-Windows) but it is "too much" for me right now. Anyhow, it works in most cases without proper installation.
    By using these lines...

    c:\ffmpeg\bin\ffmpeg -i "http://svtplay4p-f.akamaihd.net/i/se/secure/20120917/1227820-001A/MYSTERIES_OF_CE-001A-72c333a1d16d352f_,900,224,420,620,1660,2760,.mp4.c smil/index_5_av.m3u8?null=&e=b2a7ace1bf661c32&id=AgBV5i aSXCEhhEUJb1DReyLV9gsAO3QqRNuvCWhotmbYtQ35Oa75Molm O07qy9R9K87VtgRu%2fltxhw%3d%3d" -acodec copy -vcodec copy -absf aac_adtstoasc "documentary.mp4"

    ... i got this message:

    frame=75065 fps= 83 q=-1.0 size= 1010243kB time=00:50:02.56 bitrate=2756.3kbits/
    frame=75117 fps= 83 q=-1.0 size= 1010915kB time=00:50:04.65 bitrate=2756.2kbits/
    frame=75165 fps= 83 q=-1.0 size= 1011574kB time=00:50:06.61 bitrate=2756.2kbits/
    Assertion track->cluster[0].dts <= 0 failed at /home/kyle/software/ffmpeg/source
    /ffmpeg-git/libavformat/movenc.c:1676

    This application has requested the Runtime to terminate it in an unusual way.
    Please contact the application's support team for more information.

    C:\FFmpeg\bin>


    Is there anyone who knows this problem?
    Quote Quote  
  2. I'm a MEGA Super Moderator Baldrick's Avatar
    Join Date
    Aug 2000
    Location
    Sweden
    Search Comp PM
    Use H.VHS.
    Quote Quote  
  3. Originally Posted by Baldrick View Post
    Use H.VHS.
    Tack för svar, men H.VHS har jag redan och det kan inte fixa HDS-strömmar ännu. Provade med senaste betan också.
    Quote Quote  
  4. I'm a MEGA Super Moderator Baldrick's Avatar
    Join Date
    Aug 2000
    Location
    Sweden
    Search Comp PM
    I see. Nope, I haven't tried any HDS stream recording.
    Quote Quote  
  5. Originally Posted by Baldrick View Post
    Yup, a good program (hate calling it app though). I usually get to the site using the online service and then ffmpeg.

    And the main problem i described earlier in this thread is still there but i managed to get it to the hd. I do get some small probs with audio. For example, if the program got voice over, his or her voice gets darker. I can live with it but everybody seems using steroids or something
    Quote Quote  



Similar Threads