VideoHelp Forum

Try DVDFab and download streaming video, copy, convert or make Blu-rays,DVDs! Download free trial !
+ Reply to Thread
Results 1 to 3 of 3
Thread
  1. Member gOdiSOnyOuRsIDe's Avatar
    Join Date
    Mar 2004
    Location
    United States
    Search Comp PM
    I'm recording my gameplay with MSI Afterburner and the program spits out videos encoded in MJPEG video and PCM Audio codec in a AVI container.

    I was up all night deciding what program to use to shrink and edit the resulting file. There are so many programs out it's dizzying. I am familiar with Virtualdub and I'd prefer to use h264 in a MP4 container so I can upload to Youtube.

    As you can see a 20min file comes out to be 21.8GB, too big to upload to Youtube. I'm looking for a simple all-in-one program to compress the file and convert to MP4. The program needs to have simple editing features so I can cut segments of the video to upload instead of the entire video.

    Complete name : G:\vIDEO & sCREEN cAPTURE\bf3_2012_06_18_18_24_49_004.avi
    Format : AVI
    Format/Info : Audio Video Interleave
    Format profile : OpenDML
    File size : 21.8 GiB
    Duration : 20mn 28s
    Overall bit rate : 152 Mbps

    Video
    ID : 0
    Format : JPEG
    Codec ID : MJPG
    Duration : 20mn 28s
    Bit rate : 234 Mbps
    Width : 1 280 pixels
    Height : 720 pixels
    Display aspect ratio : 16:9
    Frame rate : 60.000 fps
    Color space : YUV
    Chroma subsampling : 4:2:0
    Bit depth : 8 bits
    Compression mode : Lossy
    Bits/(Pixel*Frame) : 4.224
    Stream size : 33.4 GiB

    Audio
    ID : 1
    Format : PCM
    Format settings, Endianness : Little
    Format settings, Sign : Signed
    Codec ID : 1
    Duration : 20mn 28s
    Bit rate mode : Constant
    Bit rate : 1 411.2 Kbps
    Channel(s) : 2 channels
    Sampling rate : 44.1 KHz
    Bit depth : 16 bits
    Stream size : 207 MiB (1%)
    Interleave, duration : 17 ms (1.00 video frame)
    The further away I get from the things that I care about...
    the less I care about how much further away I get...
    Quote Quote  
  2. you can try avidemux, but vdub can export h.264/mp4 with the external encoder feature ( http://forums.virtualdub.org/index.php?act=ST&f=5&t=18789& ) or through vdub frameserver to another program that exports h.264/mp4

    Also, 60p won't be accepted by youtube (it will be re-encoded to 30p, dropping 1/2 the frames), so there is no use uploading a 60p video
    Quote Quote  
  3. Member gOdiSOnyOuRsIDe's Avatar
    Join Date
    Mar 2004
    Location
    United States
    Search Comp PM
    I checked the link you gave me but I couldn't find a link for the external encoder feature. I'm using vdub version 1.9.11 x86.

    Thanks for the heads up on 60p, I never uploaded videos to Youtube this will be my first time.
    The further away I get from the things that I care about...
    the less I care about how much further away I get...
    Quote Quote  



Similar Threads