VideoHelp Forum

Our website is made possible by displaying online advertisements to our visitors. Consider supporting us by disable your adblocker or Try ConvertXtoDVD and convert all your movies to DVD. Free trial ! :)
+ Reply to Thread
Results 1 to 8 of 8
Thread
  1. which programs are able to play TSV files and which ones can convert it? For keeping the quality of the original file, which format is the best (arquive in DVD). Thank you for the help.
    Quote Quote  
  2. aBigMeanie aedipuss's Avatar
    Join Date
    Oct 2005
    Location
    666th portal
    Search Comp PM
    tsv files are "tab separated value" database files. try to be more specific. if the are supposed to be video how did you make them and with what?
    --
    "a lot of people are better dead" - prisoner KSC2-303
    Quote Quote  
  3. This format is the format of the video recorded by equipment peekton 500. Transport stream format (*tsv). Can only be read in the equipment but if I choose to record as .mpg, subtitles can not be recorded... tnks!
    Quote Quote  
  4. You might try VLC, or ffmpeg/ffplay, or mplayer/mencoder

    What does mediainfo (view=>text) say about the file ?

    Usually there are mulitple issues with proprietary formats. If you upload a small sample you might get better input
    Quote Quote  
  5. aBigMeanie aedipuss's Avatar
    Join Date
    Oct 2005
    Location
    666th portal
    Search Comp PM
    sorry it seems to be some machine sold only in france and i can't read a manual in french.

    if nothing can play the tsv files the mpg version is the best you are going to get.
    --
    "a lot of people are better dead" - prisoner KSC2-303
    Quote Quote  
  6. indeed, it is a french machine. What is strange is that, I have the possibility to choose the record format: TS or mpg. But when recorded, it is TSV...
    I tried FormatFactory program to convert to MP4; after 12 hours converting, a error message.

    Now I will try small records and the VLC as suggested.

    So, about the mediainfo, i renamed the file to TS instead of TSV and I could have:

    General
    ID : 4 (0x4)
    Complete name : C:\Users\Elbia\Desktop\Films\PVR\20120218_212846AR TE HD\20120218_212846ARTE HD.ts
    Format : MPEG-TS
    File size : 2.57 GiB
    Duration : 37mn 44s
    Overall bit rate : 9 731 Kbps

    Video
    ID : 720 (0x2D0)
    Menu ID : 1031 (0x407)
    Format : AVC
    Format/Info : Advanced Video Codec
    Format profile : High@L4.0
    Format settings, CABAC : Yes
    Format settings, ReFrames : 4 frames
    Format settings, GOP : M=4, N=32
    Codec ID : 27
    Duration : 37mn 44s
    Bit rate : 8 992 Kbps
    Width : 1 920 pixels
    Height : 1 080 pixels
    Display aspect ratio : 16:9
    Frame rate : 25.000 fps
    Color space : YUV
    Chroma subsampling : 4:2:0
    Bit depth : 8 bits
    Scan type : MBAFF
    Bits/(Pixel*Frame) : 0.173
    Stream size : 2.37 GiB (92%)
    Color primaries : BT.709-5, BT.1361, IEC 61966-2-4, SMPTE RP177
    Transfer characteristics : BT.709-5, BT.1361
    Matrix coefficients : BT.709-5, BT.1361, IEC 61966-2-4 709, SMPTE RP177

    Audio
    ID : 730 (0x2DA)
    Menu ID : 1031 (0x407)
    Format : MPEG Audio
    Format version : Version 1
    Format profile : Layer 2
    Codec ID : 3
    Duration : 37mn 44s
    Bit rate mode : Constant
    Bit rate : 256 Kbps
    Channel(s) : 2 channels
    Sampling rate : 48.0 KHz
    Compression mode : Lossy
    Delay relative to video : -741ms
    Stream size : 69.1 MiB (3%)
    Language : French

    Text
    ID : 742 (0x2E6)
    Menu ID : 1031 (0x407)
    Format : DVB Subtitle
    Codec ID : 6
    Language : French

    Menu
    ID : 710 (0x2C6)
    Menu ID : 1031 (0x407)
    Duration : 37mn 44s
    List : 720 (0x2D0) (AVC) / 730 (0x2DA) (MPEG Audio, French) / 742 (0x2E6) (DVB Subtitle, French)
    Language : / French / French
    Quote Quote  
  7. Member
    Join Date
    Feb 2018
    Location
    Brisbane
    Search Comp PM
    TSV files partially solved

    I got mine from a hd Hisense TV

    Can play them using media player or KLM or SMPlayer v18.2.0

    VLC will not do it

    renaming works also but not required
    Quote Quote  
  8. Member
    Join Date
    Feb 2018
    Location
    Brisbane
    Search Comp PM
    I have also tested the above on VISTA and SM player works. Although if you
    dpn't change the TSV to ts they look like NOTEPAD file when you click
    on them. With Icaros setup you get thumbnails as TS. And you can
    see what you're doing.
    Quote Quote  



Similar Threads