VideoHelp Forum

Try DVDFab and download streaming video, copy, convert or make Blu-rays,DVDs! Download free trial !
+ Reply to Thread
Results 1 to 1 of 1
Thread
  1. Member
    Join Date
    May 2008
    Location
    France
    Search Comp PM
    I have a (decrypted) iTunes file, wit embedded subs, as described by MediaInfo:

    Code:
    General
    Complete name                            : 01 Pilot_ Chapters One & Two (HD).mp4
    Format                                   : MPEG-4
    Codec ID                                 : M4V 
    File size                                : 2.80 GiB
    Duration                                 : 1h 24mn
    Overall bit rate mode                    : Variable
    Overall bit rate                         : 4 725 Kbps
    Movie name                               : Pilot: Chapters One & Two
    Album                                    : The Firm, Season 1
    Album/Performer                          : The Firm
    Part/Position                            : 1
    Part/Total                               : 1
    Track name/Position                      : 1
    Track name/Total                         : 0
    Performer                                : The Firm
    Genre                                    : Drama
    Recorded date                            : UTC 2012-01-09 08:00:00
    Encoded date                             : UTC 2012-01-08 00:12:41
    Tagged date                              : UTC 2012-01-08 00:13:48
    Copyright                                :  2012 The Firm Television Productions Inc. All Rights Reserved
    Cover                                    : Yes
    desc                                     : When lawyer Mitch McDeere defends a young teen accused of murdering a classmate,  he must contend 
    hdvd                                     : 1
    tvnn                                     : NBC
    tvsh                                     : The Firm
    tven                                     : 101
    tvsn                                     : 1
    tves                                     : 1
    stik                                     : 10
    purd                                     : 2012-02-18 15:52:35
    soal                                     : The Firm, Season 1
    soar                                     : Firm
    flvr                                     : 7:720p
    iTunEXTC                                 : us-tv|TV-14|500|
    ldes                                     : When lawyer Mitch McDeere defends a young teen accused of murdering a classmate,  he must contend with the raw emotions of the victim’s family. Meanwhile, Mitch gets an attractive job offer from a prestigious suitor, the law firm of Kinross & Clark, but the powerful firm may have a nefarious, hidden motive for offering him a partnership.
    sdes                                     : Executive Produced by Lukas Reiter and John Grisham, THE FIRM continues the story of Mitchell Y. McDeere and his family, ten years after the events of the popular film and novel. /  / As a young associate, Mitch brought down Bendini, Lambert & Locke, a prestigious Memphis law firm operating as a front for the Chicago Mob.  His life was never the same. /  / After a difficult ten years, which included a stay in the Federal Witness Protection Program, Mitch and his family emerge from isolation determined to reclaim their lives and their future -- only to find that past dangers are still lurking and new threats are everywhere.
    iTunMOVI                                 : <?xml version="1.0" encoding="UTF-8"?> / <!DOCTYPE plist PUBLIC "-//Apple//DTD PLIST 1.0//EN" "http://www.apple.com/DTDs/PropertyList-1.0.dtd"> / <plist version="1.0"> / <dict> / 	<key>asset-info</key> / 	<dict> / 		<key>closed-captioned</key> / 		<true/> / 		<key>file-size</key> / 		<integer>3009109146</integer> / 		<key>flavor</key> / 		<string>7:720p</string> / 		<key>high-definition</key> / 		<true/> / 		<key>screen-format</key> / 		<string>widescreen</string> / 		<key>soundtrack</key> / 		<string>DD,DS</string> / 	</dict> / </dict> / </plist>
    
    Video
    ID                                       : 1
    Format                                   : AVC
    Format/Info                              : Advanced Video Codec
    Format profile                           : High@L3.1
    Format settings, CABAC                   : No
    Format settings, ReFrames                : 2 frames
    Codec ID                                 : avc1
    Codec ID/Info                            : Advanced Video Coding
    Duration                                 : 1h 24mn
    Bit rate                                 : 4 176 Kbps
    Width                                    : 1 280 pixels
    Height                                   : 720 pixels
    Display aspect ratio                     : 16:9
    Frame rate mode                          : Constant
    Frame rate                               : 23.976 fps
    Color space                              : YUV
    Chroma subsampling                       : 4:2:0
    Bit depth                                : 8 bits
    Scan type                                : Progressive
    Bits/(Pixel*Frame)                       : 0.189
    Stream size                              : 2.48 GiB (88%)
    Language                                 : English
    Encoded date                             : UTC 2012-01-08 00:12:29
    Tagged date                              : UTC 2012-01-08 00:13:48
    Color primaries                          : BT.709-5, BT.1361, IEC 61966-2-4, SMPTE RP177
    Transfer characteristics                 : BT.709-5, BT.1361
    Matrix coefficients                      : BT.709-5, BT.1361, IEC 61966-2-4 709, SMPTE RP177
    
    Audio #1
    ID                                       : 2
    Format                                   : AAC
    Format/Info                              : Advanced Audio Codec
    Format profile                           : LC
    Codec ID                                 : 40
    Duration                                 : 1h 24mn
    Source duration                          : 1h 24mn
    Bit rate mode                            : Constant
    Bit rate                                 : 160 Kbps
    Channel(s)                               : 2 channels
    Channel positions                        : Front: L R
    Sampling rate                            : 48.0 KHz
    Compression mode                         : Lossy
    Stream size                              : 95.0 MiB (3%)
    Source stream size                       : 95.0 MiB
    Language                                 : English
    Encoded date                             : UTC 2012-01-08 00:12:29
    Tagged date                              : UTC 2012-01-08 00:13:48
    
    Audio #2
    ID                                       : 3
    Format                                   : AC-3
    Format/Info                              : Audio Coding 3
    Mode extension                           : CM (complete main)
    Codec ID                                 : ac-3
    Duration                                 : 1h 24mn
    Bit rate mode                            : Constant
    Bit rate                                 : 384 Kbps
    Channel(s)                               : 6 channels
    Channel positions                        : Front: L C R, Side: L R, LFE
    Sampling rate                            : 48.0 KHz
    Bit depth                                : 16 bits
    Compression mode                         : Lossy
    Stream size                              : 233 MiB (8%)
    Language                                 : English
    Encoded date                             : UTC 2012-01-08 00:12:30
    Tagged date                              : UTC 2012-01-08 00:13:48
    
    Text
    ID                                       : 4
    Format                                   : p608
    Codec ID                                 : p608
    Duration                                 : 1h 24mn
    Source duration                          : 1h 24mn
    Bit rate mode                            : Variable
    Bit rate                                 : 157 bps
    Stream size                              : 96.9 KiB (0%)
    Source stream size                       : 96.9 KiB
    Language                                 : English
    Encoded date                             : UTC 2012-01-08 00:12:30
    Tagged date                              : UTC 2012-01-08 00:13:48
    Is there tool to export these p608 subs in .srt format?

    Thanks.
    Last edited by robena; 19th Feb 2012 at 17:26.
    Quote Quote  



Similar Threads