VideoHelp Forum

Our website is made possible by displaying online advertisements to our visitors. Consider supporting us by disable your adblocker or Try ConvertXtoDVD and convert all your movies to DVD. Free trial ! :)
+ Reply to Thread
Results 1 to 4 of 4
Thread
  1. I have panasonic viera 32 inch xseries LED and it has in usb ports which supports mp4 format..but problem is it does not read my downloaded movies in mp4 format from my trusted uploader
    VIDEO
    with frame 1280x544
    data rate 883 kbps
    totla bitrate 947kbps
    frame rate 23frames/second

    AUDIO
    with bitrate 64kbps

    but it read small mp4 download in HD from savevid with following specification:
    1280x720
    data rate 1602kbps
    totla bitrate 1748kbps
    frame rate 35frames/second

    it reads .mkv files while...

    I tried mkvmerge GUI....FAILED
    tried coverting with TVC 3.71 in .mp4......FAILED
    tried converting with format factory in.mp4 ..FAILED..

    PLZZ HELP...!!!

    I want to watch these movies on TV..
    Quote Quote  
  2. I'm a MEGA Super Moderator Baldrick's Avatar
    Join Date
    Aug 2000
    Location
    Sweden
    Search Comp PM
    You forgot to include the video and audio codecs in the mp4. Use mediainfo, open mp4, view->text and copy the details.
    Quote Quote  
  3. Format : MPEG-4
    Format profile : Base Media
    Codec ID : isom
    File size : 1.00 GiB
    Duration : 2h 10mn
    Overall bit rate mode : Variable
    Overall bit rate : 1 102 Kbps
    Encoded date : UTC 2011-10-26 09:39:37
    Tagged date : UTC 2011-10-26 09:39:37
    Video
    ID : 1
    Format : AVC
    Format/Info : Advanced Video Codec
    Format profile : High@L3.1
    Format settings, CABAC : Yes
    Format settings, ReFrames : 4 frames
    Codec ID : avc1
    Codec ID/Info : Advanced Video Coding
    Duration : 2h 10mn
    Bit rate : 1 067 Kbps
    Maximum bit rate : 14.7 Mbps
    Width : 1 280 pixels
    Height : 528 pixels
    Display aspect ratio : 2.40:1
    Frame rate mode : Constant
    Frame rate : 23.976 fps
    Color space : YUV
    Chroma subsampling : 4:2:0
    Bit depth : 8 bits
    Scan type : Progressive
    Bits/(Pixel*Frame) : 0.066
    Stream size : 996 MiB (97%)
    Writing library : x264 core 114 r1924 08d04a4
    Encoding settings : cabac=1 / ref=1 / deblock=1:-2:-1 / analyse=0x3:0x113 / me=hex / subme=2 / psy=1 / psy_rd=0.00:0.00 / mixed_ref=0 / me_range=16 / chroma_me=1 / trellis=0 / 8x8dct=1 / cqm=0 / deadzone=21,11 / fast_pskip=1 / chroma_qp_offset=0 / threads=3 / sliced_threads=0 / nr=0 / decimate=1 / interlaced=0 / constrained_intra=0 / bframes=3 / b_pyramid=2 / b_adapt=1 / b_bias=0 / direct=1 / weightb=1 / open_gop=0 / weightp=1 / keyint=250 / keyint_min=23 / scenecut=40 / intra_refresh=0 / rc_lookahead=10 / rc=2pass / mbtree=1 / bitrate=1067 / ratetol=1.0 / qcomp=0.60 / qpmin=10 / qpmax=51 / qpstep=4 / cplxblur=20.0 / qblur=0.5 / ip_ratio=1.40 / aq=1:1.00
    Encoded date : UTC 2011-10-26 09:39:37
    Tagged date : UTC 2011-10-26 09:41:06
    Audio
    ID : 2
    Format : AAC
    Format/Info : Advanced Audio Codec
    Format profile : HE-AAC / LC
    Codec ID : 40
    Duration : 2h 10mn
    Bit rate mode : Variable
    Bit rate : 32.0 Kbps
    Maximum bit rate : 55.4 Kbps
    Channel(s) : 2 channels
    Channel positions : Front: L R
    Sampling rate : 48.0 KHz / 24.0 KHz
    Compression mode : Lossy
    Stream size : 29.9 MiB (3%)
    Encoded date : UTC 2011-10-26 09:41:02
    Tagged date : UTC 2011-10-26 09:41:06
    Quote Quote  
  4. the mp4 i have seen on tv has this follwing setting:

    Format : MPEG-4
    Format profile : Base Media / Version 2
    Codec ID : mp42
    File size : 33.6 MiB
    Duration : 2mn 41s
    Overall bit rate mode : Variable
    Overall bit rate : 1 745 Kbps
    Encoded date : UTC 2011-12-26 20:47:05
    Tagged date : UTC 2011-12-26 20:47:05
    gsst : 0
    gstd : 161610
    gssd : B4A7DA921HH1329054316357557
    gshh : o-o.preferred.maa03s08.v2.lscache7.c.youtube.com
    Video
    ID : 1
    Format : AVC
    Format/Info : Advanced Video Codec
    Format profile : High@L3.1
    Format settings, CABAC : Yes
    Format settings, ReFrames : 1 frame
    Format settings, GOP : M=1, N=30
    Codec ID : avc1
    Codec ID/Info : Advanced Video Coding
    Duration : 2mn 41s
    Bit rate : 1 597 Kbps
    Maximum bit rate : 7 559 Kbps
    Width : 1 280 pixels
    Height : 720 pixels
    Display aspect ratio : 16:9
    Frame rate mode : Constant
    Frame rate : 25.000 fps
    Color space : YUV
    Chroma subsampling : 4:2:0
    Bit depth : 8 bits
    Scan type : Progressive
    Bits/(Pixel*Frame) : 0.069
    Stream size : 30.8 MiB (92%)
    Tagged date : UTC 2011-12-26 20:47:06
    Audio
    ID : 2
    Format : AAC
    Format/Info : Advanced Audio Codec
    Format profile : LC
    Codec ID : 40
    Duration : 2mn 41s
    Bit rate mode : Variable
    Bit rate : 144 Kbps
    Maximum bit rate : 229 Kbps
    Channel(s) : 2 channels
    Channel positions : Front: L R
    Sampling rate : 44.1 KHz
    Compression mode : Lossy
    Stream size : 2.80 MiB (8%)
    Title : IsoMedia File Produced by Google, 5-11-2011
    Encoded date : UTC 2011-12-26 20:47:06
    Tagged date : UTC 2011-12-26 20:47:06
    Quote Quote  



Similar Threads