VideoHelp Forum

Try DVDFab and download streaming video, copy, convert or make Blu-rays,DVDs! Download free trial !
+ Reply to Thread
Results 1 to 3 of 3
Thread
  1. I'm learning how to convert TP/TS to MKV using megui.
    I'm confusing about maximum bitrate, how to set?


    this is my work:
    D:\Downloads\[MyYunho][Yaoer]Tohoshinki 3rd Live Tour ~T~.Blu-ray.1280x720.x264.ac3.mkv
    General
    Unique ID : 199177171723590244612152333902746002788 (0x95D820BFC382F6279195937401FCA564)
    Complete name : D:\Downloads\[MyYunho][Yaoer]Tohoshinki 3rd Live Tour ~T~.Blu-ray.1280x720.x264.ac3.mkv
    Format : Matroska
    File size : 6.93 GiB
    Duration : 2h 29mn
    Overall bit rate : 6 641 Kbps
    Movie name : [MyYunho][Yaoer]Tohoshinki 3rd Live Tour ~T~.Blu-ray.1280x720.x264.ac3
    Encoded date : UTC 2012-02-14 01:53:13
    Writing application : mkvmerge v5.2.1 ('A Far Off Place') built on Jan 2 2012 23:21:10
    Writing library : libebml v1.2.3 + libmatroska v1.3.0
    Video #2
    ID : 2
    Format : AVC
    Format/Info : Advanced Video Codec
    Format profile : High@L4.1
    Format settings, CABAC : Yes
    Format settings, ReFrames : 5 frames
    Format settings, GOP : M=1, N=32
    Muxing mode : Header stripping
    Codec ID : V_MPEG4/ISO/AVC
    Duration : 2h 29mn
    Bit rate : 6 000 Kbps
    Width : 1 280 pixels
    Height : 720 pixels
    Display aspect ratio : 16:9
    Frame rate : 23.976 fps
    Color space : YUV
    Chroma subsampling : 4:2:0
    Bit depth : 8 bits
    Scan type : Progressive
    Bits/(Pixel*Frame) : 0.272
    Stream size : 6.13 GiB (88%)
    Writing library : x264 core 120 r2146 bcd41db
    Encoding settings : cabac=1 / ref=5 / deblock=1:-2:-1 / analyse=0x3:0x113 / me=umh / subme=7 / psy=1 / psy_rd=1.00:0.00 / mixed_ref=1 / me_range=16 / chroma_me=1 / trellis=1 / 8x8dct=1 / cqm=0 / deadzone=21,11 / fast_pskip=1 / chroma_qp_offset=-2 / threads=6 / sliced_threads=0 / nr=0 / decimate=1 / interlaced=0 / bluray_compat=0 / constrained_intra=0 / bframes=3 / b_pyramid=0 / b_adapt=2 / b_bias=0 / direct=3 / weightb=1 / open_gop=0 / weightp=2 / keyint=240 / keyint_min=23 / scenecut=40 / intra_refresh=0 / rc=2pass / mbtree=0 / bitrate=6000 / ratetol=1.0 / qcomp=0.60 / qpmin=10 / qpmax=51 / qpstep=4 / cplxblur=20.0 / qblur=0.5 / ip_ratio=1.40 / pb_ratio=1.30 / aq=1:1.00
    Audio #1
    ID : 1
    Format : AC-3
    Format/Info : Audio Coding 3
    Mode extension : CM (complete main)
    Muxing mode : Header stripping
    Codec ID : A_AC3
    Duration : 2h 29mn
    Bit rate mode : Constant
    Bit rate : 640 Kbps
    Channel(s) : 6 channels
    Channel positions : Front: L C R, Side: L R, LFE
    Sampling rate : 48.0 KHz
    Bit depth : 16 bits
    Compression mode : Lossy
    Stream size : 684 MiB (10%)
    and this is someone else's work:
    D:\Downloads\Tohoshinki_-_2nd_Live_Tour_2007_Five_in_the_Black_[720P].mkv
    General
    Unique ID : 243328633181890175814316547274170226431 (0xB70F63DD68AEE424B4CB59FD08E0D6FF)
    Complete name : D:\Downloads\Tohoshinki_-_2nd_Live_Tour_2007_Five_in_the_Black_[720P].mkv
    Format : Matroska
    File size : 4.60 GiB
    Duration : 2h 9mn
    Overall bit rate : 5 069 Kbps
    Encoded date : UTC 2010-04-22 09:06:27
    Writing application : mkvmerge v3.2.0 ('Beginnings') 编译于 Feb 12 2010 16:46:17
    Writing library : libebml v0.7.9 + libmatroska v0.8.1
    Video #1
    ID : 1
    Format : AVC
    Format/Info : Advanced Video Codec
    Format profile : High@L4.1
    Format settings, CABAC : Yes
    Format settings, ReFrames : 3 frames
    Codec ID : V_MPEG4/ISO/AVC
    Duration : 2h 9mn
    Bit rate mode : Variable
    Maximum bit rate : 14.0 Mbps

    Width : 1 280 pixels
    Height : 720 pixels
    Display aspect ratio : 16:9
    Frame rate : 23.976 fps
    Color space : YUV
    Chroma subsampling : 4:2:0
    Bit depth : 8 bits
    Scan type : Progressive
    Writing library : x264 core 80 r1376M 3feaec2
    Encoding settings : cabac=1 / ref=4 / deblock=1:0:0 / analyse=0x3:0x113 / me=hex / subme=7 / psy=1 / psy_rd=1.0:0.0 / mixed_ref=1 / me_range=16 / chroma_me=1 / trellis=0 / 8x8dct=1 / cqm=0 / deadzone=21,11 / fast_pskip=1 / chroma_qp_offset=-2 / threads=3 / sliced_threads=0 / slices=4 / nr=0 / decimate=1 / mbaff=0 / constrained_intra=0 / bframes=3 / b_pyramid=1 / b_adapt=1 / b_bias=0 / direct=1 / wpredb=1 / wpredp=2 / keyint=24 / keyint_min=2 / scenecut=40 / rc_lookahead=24 / rc=crf / mbtree=1 / crf=18.5 / qcomp=0.60 / qpmin=10 / qpmax=51 / qpstep=4 / vbv_maxrate=14000 / vbv_bufsize=14500 / ip_ratio=1.40 / aq=1:1.00
    Audio #2
    ID : 2
    Format : AAC
    Format/Info : Advanced Audio Codec
    Format profile : HE-AAC / LC
    Codec ID : A_AAC
    Duration : 2h 9mn
    Channel(s) : 6 channels
    Channel positions : Front: L C R, Side: L R, LFE
    Sampling rate : 48.0 KHz / 24.0 KHz
    Compression mode : Lossy
    thx in advance^^
    Quote Quote  
  2. --vbv-maxrate
    http://mewiki.project357.com/wiki/X264_Settings#vbv-maxrate

    But it's probably not what you think it is. It's the maximum rate that enters the buffer, not the maximum instantaneous bitrate
    Quote Quote  
  3. sorry i still don't quite understand....
    sometines that person's MKV is clearer than mine even thought we use the same tp file to convert ><
    Quote Quote  



Similar Threads