VideoHelp Forum

Try DVDFab and download streaming video, copy, convert or make Blu-rays,DVDs! Download free trial !
Closed Thread
Results 1 to 3 of 3
Thread
  1. Hi All,

    I've just pruchased the above TV, and have been given a few 3D SBS blu-ray rips by a friend. However some of the mkv's do not play on the tv i get file not supported errors, where as others play fine.

    What do i need to do to get these files working, guessing its a codec issue somewhere

    File dthat doesn't play

    General
    Unique ID : 209272299082846975438355149652834442480 (0x9D7060F4ACC1C5D7AD74EECAA9C4DCF0)
    Complete name : F:\3D Blurays\Toy.Story.3D.1995.1080p.BluRay.Half.SBS.DT S.x264-HDMaNiAcS\Toy.Story.3D.1995.1080p.BluRay.Half.SBS. DTS.x264-HDMaNiAcS.mkv
    Format : Matroska
    Format version : Version 2
    File size : 6.61 GiB
    Duration : 1h 21mn
    Overall bit rate : 11.7 Mbps
    Encoded date : UTC 2011-11-03 01:55:53
    Writing application : mkvmerge v4.9.1 ('Ich will') built on Jul 11 2011 23:53:15
    Writing library : libebml v1.2.1 + libmatroska v1.1.1

    Video
    ID : 1
    Format : AVC
    Format/Info : Advanced Video Codec
    Format profile : High@L4.1
    Format settings, CABAC : Yes
    Format settings, ReFrames : 4 frames
    Codec ID : V_MPEG4/ISO/AVC
    Duration : 1h 21mn
    Bit rate : 10 000 Kbps
    Width : 1 920 pixels
    Height : 1 080 pixels
    Display aspect ratio : 16:9
    Frame rate : 23.976 fps
    Color space : YUV
    Chroma subsampling : 4:2:0
    Bit depth : 8 bits
    Scan type : Progressive
    Bits/(Pixel*Frame) : 0.201
    Stream size : 5.62 GiB (85%)
    Writing library : x264 core 118 r2085 8a62835
    Encoding settings : cabac=1 / ref=4 / deblock=1:-3:-3 / analyse=0x3:0x113 / me=tesa / subme=10 / psy=1 / psy_rd=0.90:0.00 / mixed_ref=1 / me_range=32 / chroma_me=1 / trellis=2 / 8x8dct=1 / cqm=0 / deadzone=21,11 / fast_pskip=0 / chroma_qp_offset=-2 / threads=12 / sliced_threads=0 / nr=0 / decimate=0 / interlaced=0 / bluray_compat=0 / constrained_intra=0 / bframes=8 / b_pyramid=2 / b_adapt=2 / b_bias=0 / direct=3 / weightb=1 / open_gop=0 / weightp=2 / keyint=250 / keyint_min=23 / scenecut=40 / intra_refresh=0 / rc=2pass / mbtree=0 / bitrate=10000 / ratetol=1.0 / qcomp=0.60 / qpmin=0 / qpmax=69 / qpstep=4 / cplxblur=20.0 / qblur=0.5 / ip_ratio=1.40 / pb_ratio=1.30 / aq=1:0.90
    Language : English
    Default : Yes
    Forced : No

    Audio
    ID : 2
    Format : DTS
    Format/Info : Digital Theater Systems
    Format profile : ES
    Codec ID : A_DTS
    Duration : 1h 21mn
    Bit rate mode : Constant
    Bit rate : 1 510 Kbps
    Channel(s) : 6 channels
    Channel positions : Front: L C R, Side: L R, LFE
    Sampling rate : 48.0 KHz
    Bit depth : 24 bits
    Compression mode : Lossy
    Stream size : 876 MiB (13%)
    Language : English
    Default : Yes
    Forced : No



    File that does

    General
    Unique ID : 206449472392379697491696953773405484208 (0x9B50B8DAC81A0395B5C3B271721FB4B0)
    Complete name : F:\3D Blurays\despicable me\Despicable Me 3D Half-SBS.mkv
    Format : Matroska
    Format version : Version 2
    File size : 7.44 GiB
    Duration : 1h 34mn
    Overall bit rate : 11.2 Mbps
    Encoded date : UTC 2010-12-09 01:50:22
    Writing application : mkvmerge v4.3.0 ('Escape from the Island') gemaakt op Sep 5 2010 10:30:51
    Writing library : libebml v1.0.0 + libmatroska v1.0.0

    Video
    ID : 1
    Format : AVC
    Format/Info : Advanced Video Codec
    Format profile : High@L4.0
    Format settings, CABAC : Yes
    Format settings, ReFrames : 4 frames
    Codec ID : V_MPEG4/ISO/AVC
    Duration : 1h 34mn
    Bit rate : 9 497 Kbps
    Nominal bit rate : 10 000 Kbps
    Width : 1 920 pixels
    Height : 1 080 pixels
    Display aspect ratio : 16:9
    Frame rate mode : Variable
    Frame rate : 23.976 fps
    Color space : YUV
    Chroma subsampling : 4:2:0
    Bit depth : 8 bits
    Scan type : Progressive
    Bits/(Pixel*Frame) : 0.191
    Stream size : 6.29 GiB (85%)
    Writing library : x264 core 107 r1745 4785e8e
    Encoding settings : cabac=1 / ref=3 / deblock=1:0:0 / analyse=0x3:0x113 / me=hex / subme=7 / psy=1 / psy_rd=1.00:0.00 / mixed_ref=1 / me_range=16 / chroma_me=1 / trellis=1 / 8x8dct=1 / cqm=0 / deadzone=21,11 / fast_pskip=1 / chroma_qp_offset=-2 / threads=6 / sliced_threads=0 / nr=0 / decimate=1 / interlaced=0 / constrained_intra=0 / bframes=3 / b_pyramid=2 / b_adapt=1 / b_bias=0 / direct=1 / weightb=1 / open_gop=0 / weightp=2 / keyint=250 / keyint_min=25 / scenecut=40 / intra_refresh=0 / rc_lookahead=40 / rc=abr / mbtree=1 / bitrate=10000 / ratetol=1.0 / qcomp=0.60 / qpmin=10 / qpmax=51 / qpstep=4 / ip_ratio=1.41 / aq=1:1.00
    Default : Yes
    Forced : No

    Audio
    ID : 2
    Format : DTS
    Format/Info : Digital Theater Systems
    Codec ID : A_DTS
    Duration : 1h 34mn
    Bit rate mode : Constant
    Bit rate : 1 510 Kbps
    Channel(s) : 6 channels
    Channel positions : Front: L C R, Side: L R, LFE
    Sampling rate : 48.0 KHz
    Bit depth : 24 bits
    Compression mode : Lossy
    Stream size : 1 024 MiB (13%)
    Default : Yes
    Forced : No

    I have tried H.264 level editor to bring level down to 4.0 but still doesnt play

    Any help much appreciated
    Many Thanks
    Nathan

  2. Member hech54's Avatar
    Join Date
    Jul 2001
    Location
    Yank in Europe
    Search Comp PM
    Originally Posted by nathan1990 View Post
    have been given a few 3D SBS blu-ray rips by a friend.
    Complete name : F:\3D Blurays\Toy.Story.3D.1995.1080p.BluRay.Half.SBS.DT S.x264-HDMaNiAcS
    Complete name : F:\3D Blurays\despicable me\Despicable Me 3D Half-SBS.mkv
    Buy the Blu-Ray discs and rip them yourself.

  3. I'm a MEGA Super Moderator Baldrick's Avatar
    Join Date
    Aug 2000
    Location
    Sweden
    Search Comp PM
    Yes. Buy it.




Similar Threads