VideoHelp Forum


Try DVDFab Video Downloader and rip Netflix video! Or Try DVDFab and copy Blu-rays! or rip iTunes movies!
+ Reply to Thread
Results 1 to 13 of 13
Thread
  1. Member
    Join Date
    Sep 2007
    Location
    United States
    Search Comp PM
    What is the difference between AVCHD and Blu ray stucture? They both have the m2ts. ending to them. So should I convert my AVCHD to Blu ray on a program like tsmuxer before authoring them?
    Quote Quote  
  2. I'm a MEGA Super Moderator Baldrick's Avatar
    Join Date
    Aug 2000
    Location
    Sweden
    Search Comp PM
    "Although AVCHD shares many format similarities with Blu-ray Disc, it is not part of the Blu-ray specification. Consequently, AVCHD-playback is not universally supported across all Blu-ray Disc players. "
    http://en.wikipedia.org/wiki/AVCHD


    So if your blu-ray player supports avchd you can just burn the bdmv folder on dvdr or blu-ray.
    Quote Quote  
  3. Member edDV's Avatar
    Join Date
    Mar 2004
    Location
    Northern California, USA
    Search Comp PM
    AVCHD folder tree uses 8.3 names vs long file names in Blu-Ray (e.g. 00000.MTS vs 00000.m2ts).

    What do you mean "convert your AVCHD"? Are you talking about camcorder files or editor output?
    Recommends: Kiva.org - Loans that change lives.
    http://www.kiva.org/about
    Quote Quote  
  4. Member
    Join Date
    Sep 2007
    Location
    United States
    Search Comp PM
    I mean does'nt MultiAVCHD convert your AVCHD files to a Blu ray output? And then once that is done, do I use imagburn to burn the video to bluray?
    Quote Quote  
  5. Member edDV's Avatar
    Join Date
    Mar 2004
    Location
    Northern California, USA
    Search Comp PM
    Originally Posted by jbitakis View Post
    I mean does'nt MultiAVCHD convert your AVCHD files to a Blu ray output? And then once that is done, do I use imagburn to burn the video to bluray?
    Yes either AVCHD or Blu-Ray format. Imgburn can be linked within MultiAVCHD so that end result is a DVD or BD-R. See http://multiavchd.deanbg.com/tutorial.php

    Click image for larger version

Name:	multiavchd_settingsmark.jpg
Views:	754
Size:	218.8 KB
ID:	9699
    Last edited by edDV; 19th Nov 2011 at 22:23.
    Recommends: Kiva.org - Loans that change lives.
    http://www.kiva.org/about
    Quote Quote  
  6. Member
    Join Date
    Sep 2007
    Location
    United States
    Search Comp PM
    Thanks, but when I then check imagburn and after multiavchd is done, I go to imagburn and then click on "write image file to disk" I can't seem to find these files that multiavchd changed to avchd to HD/dvd (I am trying to burn the HD video to DVD so that if I screw up it only cost me a cheap dvd disc vs. a more expensive blu ray disc). So what do I do now?
    Quote Quote  
  7. You have to be in build mode in ImgBurn, not write mode. You are not burning an .iso image like with regular DVD's. You will be burning an AVCHD folder. Put ImgBurn in build mode, click on the little folder icon, and select the folder that was created in MultiAVCHD. Once its selected, then click on the little calculator icon in ImgBurn. You should get a prompt letting you know that your folder contains a Blu-ray file structure, which is what you want. Click yes and it will switch the profile to the correct one (UDF 2.50 I believe). You should be good from there.
    Quote Quote  
  8. Member
    Join Date
    Sep 2007
    Location
    United States
    Search Comp PM
    Thanks, now it worked and the computer played the HD DVD (blu-ray file structure) video clip flawlessly, but when I put the dvd in my samsung blu-ray player, it played the video perfect, but about halfway through the video clip, the audio stops playing. I figure that its got to be something goofy with the sambung blu-ray player, right???
    Quote Quote  
  9. Not necessarily. It could very well be a problem with the source file. Play the raw file back on your computer at the point where the audio gets dropped on your Samsung and see what happens.
    Quote Quote  
  10. Member
    Join Date
    Sep 2007
    Location
    United States
    Search Comp PM
    The raw file plays just fine. I played it on the computer already. I assume that by "raw file", you mean the original video file clip taken from the camcorder placed on the computer? Yes, it plays fine on my computer.

    Here is the mediainfo about this file:

    General
    ID : 1 (0x1)
    Complete name : C:\Users\Daddy's HP Laptop\Videos\10-29-2011\AVCHD\BDMV\STREAM\00000.m2ts
    Format : BDAV
    Format/Info : Blu-ray Video
    File size : 123 MiB
    Duration : 39s 471ms
    Overall bit rate mode : Variable
    Overall bit rate : 26.2 Mbps
    Maximum Overall bit rate : 35.5 Mbps
    Video
    ID : 4113 (0x1011)
    Menu ID : 1 (0x1)
    Format : AVC
    Format/Info : Advanced Video Codec
    Format profile : High@L4.2
    Format settings, CABAC : Yes
    Format settings, ReFrames : 4 frames
    Format settings, GOP : M=3, N=30
    Codec ID : 27
    Duration : 39s 506ms
    Bit rate mode : Variable
    Bit rate : 24.9 Mbps
    Maximum bit rate : 26.0 Mbps
    Width : 1 920 pixels
    Height : 1 080 pixels
    Display aspect ratio : 16:9
    Frame rate : 59.940 fps
    Color space : YUV
    Chroma subsampling : 4:2:0
    Bit depth : 8 bits
    Scan type : Progressive
    Bits/(Pixel*Frame) : 0.200
    Stream size : 117 MiB (95%)
    Audio
    ID : 4352 (0x1100)
    Menu ID : 1 (0x1)
    Format : AC-3
    Format/Info : Audio Coding 3
    Mode extension : CM (complete main)
    Codec ID : 129
    Duration : 39s 488ms
    Bit rate mode : Constant
    Bit rate : 256 Kbps
    Channel(s) : 2 channels
    Channel positions : Front: L R
    Sampling rate : 48.0 KHz
    Bit depth : 16 bits
    Compression mode : Lossy
    Delay relative to video : -3ms
    Stream size : 1.21 MiB (1%)
    Text
    ID : 4608 (0x1200)
    Menu ID : 1 (0x1)
    Format : PGS
    Codec ID : 144
    Duration : 39s 40ms
    Delay relative to video : -33ms
    Last edited by jbitakis; 24th Nov 2011 at 00:41.
    Quote Quote  
  11. Member edDV's Avatar
    Join Date
    Mar 2004
    Location
    Northern California, USA
    Search Comp PM
    1920x1080 60p is outside the Blu-Ray spec. You're lucky it plays.

    Audio looks OK

    Which Blu-Ray model is this?
    Recommends: Kiva.org - Loans that change lives.
    http://www.kiva.org/about
    Quote Quote  
  12. Member
    Join Date
    Sep 2007
    Location
    United States
    Search Comp PM
    samsung BD-D6500/ZA. So why does it play on my Blu ray player that is on my computer, but not the stand alone samsung model?? Should I change the output on the Multiavchd software to get it to play on my samsung blu ray player?
    Quote Quote  
  13. Member
    Join Date
    Aug 2008
    Location
    Greece
    Search PM
    How i can add more than 2 video files with external greek subtitles at one and only avchd or bluray folder with the tsmuxer 2.6.12 program?

    And i want to play that disc dvd single or dual layer at my playstation3 console.

    Can i do that?

    And i want if it can do use only tsmuxer program because i don't have too powerfull computer so i can convert video file from the beginning.
    Last edited by fits79; 29th Apr 2016 at 08:42.
    Quote Quote  



Similar Threads