VideoHelp Forum

Our website is made possible by displaying online advertisements to our visitors. Consider supporting us by disable your adblocker or Try ConvertXtoDVD and convert all your movies to DVD. Free trial ! :)
+ Reply to Thread
Results 1 to 7 of 7
Thread
  1. Member
    Join Date
    Jul 2011
    Location
    england
    Search Comp PM
    hi i was wondering if someone can help me i have a galaxy s2 phone that i created a 40 minute video with but when i transfered it to my pc i could not watch it it plays fine on the phone just not on the pc so ive done some investigation and the issue arrises only when the file size exceeds 2gb any videos under this size work fine
    i have tried

    VLC
    GOM
    REAL player

    it would appear to be a limitation in file size within the codec but could do with confirmation the file information i have gathered is below both were recorded using the same resolution and both play ok on the device
    any help on this matter will be much appreciated many thanks in advanced

    working file details from media info

    General
    Complete name : video-2011-07-09-10-21-44.mp4
    Format : MPEG-4
    Format profile : 3GPP Media Release 4
    Codec ID : 3gp4
    File size : 1.84 GiB
    Duration : 16mn 35s
    Overall bit rate : 15.8 Mbps

    Video
    ID : 1
    Format : AVC
    Format/Info : Advanced Video Codec
    Format profile : High@L4.0
    Format settings, CABAC : Yes
    Format settings, ReFrames : 1 frame
    Format settings, GOP : M=1, N=30
    Muxing mode : Container profile=Unknown@22.4
    Codec ID : avc1
    Codec ID/Info : Advanced Video Coding
    Duration : 16mn 35s
    Bit rate mode : Variable
    Bit rate : 15.8 Mbps
    Width : 1 920 pixels
    Height : 1 080 pixels
    Display aspect ratio : 16:9
    Frame rate mode : Variable
    Frame rate : 27.826 fps
    Minimum frame rate : 19.608 fps
    Maximum frame rate : 58.824 fps
    Color space : YUV
    Chroma subsampling : 4:2:0
    Bit depth : 8 bits
    Scan type : Progressive
    Bits/(Pixel*Frame) : 0.273
    Stream size : 1.83 GiB (100%)
    Language : English
    Material_Duration : 995888
    Material_StreamSize : 1962737378
    Material_FrameCount : 27711

    Audio
    ID : 2
    Format : AAC
    Format/Info : Advanced Audio Codec
    Format profile : LC
    Codec ID : 40
    Duration : 16mn 35s
    Bit rate mode : Variable
    Bit rate : 60.8 Kbps
    Maximum bit rate : 66.2 Kbps
    Channel(s) : 1 channel
    Channel positions : Front: C
    Sampling rate : 16.0 KHz
    Compression mode : Lossy
    Stream size : 7.21 MiB (0%)
    Language : English
    Material_Duration : 995584
    Material_StreamSize : 7561187

    non working video file data from media info

    General
    Count : 278
    Count of stream of this kind : 1
    Kind of stream : General
    Kind of stream : General
    Stream identifier : 0
    Complete name : video-2011-07-09-10-52-11.mp4
    Folder name : C:\Users\stu\Desktop
    File name : video-2011-07-09-10-52-11
    File extension : mp4
    Format : MPEG-4
    Format : MPEG-4
    Format/Extensions usually used : mp4 m4v m4a m4b m4p 3gpp 3gp 3gpp2 3g2 k3g jpm jpx mqv ismv isma f4v
    Commercial name : MPEG-4
    Format profile : 3GPP Media Release 4
    Internet media type : video/mp4
    Codec ID : 3gp4
    Codec ID/Url : http://www.3gpp.org/
    Codec : MPEG-4
    Codec : MPEG-4
    Codec/Extensions usually used : mp4 m4v m4a m4b m4p 3gpp 3gp 3gpp2 3g2 k3g jpm jpx mqv ismv isma f4v
    File size : 2284629856
    File size : 2.13 GiB
    File size : 2 GiB
    File size : 2.1 GiB
    File size : 2.13 GiB
    File size : 2.128 GiB
    Stream size : 2284629856
    Stream size : 2.13 GiB (100%)
    Stream size : 2 GiB
    Stream size : 2.1 GiB
    Stream size : 2.13 GiB
    Stream size : 2.128 GiB
    Stream size : 2.13 GiB (100%)
    Proportion of this stream : 1.00000
    HeaderSize : 32
    DataSize : 2284007678
    FooterSize : 622146
    IsStreamable : No
    File creation date : UTC 2011-07-09 10:11:51.165
    File creation date (local) : 2011-07-09 11:11:51.165
    File last modification date : UTC 2011-07-09 10:11:01.000
    File last modification date (loc : 2011-07-09 11:11:01.000
    Quote Quote  
  2. Member
    Join Date
    Jul 2011
    Location
    england
    Search Comp PM
    ok have solved my issue the file was becoming corrupted during transfer prob samsung kies but maybe other samsung or android software posted my sollution on android forums if anyone needs it
    Quote Quote  
  3. Hi mrhawks, I do have the same problem like yours.
    Care to share?
    Quote Quote  
  4. Thanks MrHawks..
    solved it.
    1. download file manager from market i used file manager joydao
    2. locate the video on your phone press and hold the icon and select copy from the pop up list
    3. hit the phone menu button & select LAN sharing
    4. enter the ip address of your computer and then select "access"
    5. (you will need file sharing in windows turned on and have a shard folder with read and write permissions turned on)
    6. select your shared folder where you want to save your video
    7. hit the phone menu button and select paste
    so i have to go thru by another way of sending file instead of direct sending from cables?
    Last edited by winterrealm; 25th Jul 2011 at 01:22.
    Quote Quote  
  5. Member
    Join Date
    Jul 2011
    Location
    england
    Search Comp PM
    yeah im guessing its a samsumg programming error/limitation but could be gingerbread need people with other gingerbread devices to check and confirm this
    Quote Quote  
  6. guys, my video files play ok in S2 but once i transfer to my notepad(ASUS emachine...WIN XP), i am unable to play the video.. looks like it plays for 1 frame then stops!! Even it does the same for any size of files. I tried with VLC media player 2.0.1 (downloaded yesterday).. still no luck.. Can u please shed some light.. oh just remembered the video file did same once tried to open with another desktop(XP i guess). Do u have to make any change to any settings either in phone or player to play these files in full? Thanks in advance
    Last edited by mrchy; 18th Jun 2012 at 08:52. Reason: to give clear description
    Quote Quote  



Similar Threads