VideoHelp Forum

Our website is made possible by displaying online advertisements to our visitors. Consider supporting us by disable your adblocker or Try ConvertXtoDVD and convert all your movies to DVD. Free trial ! :)
+ Reply to Thread
Results 1 to 7 of 7
Thread
  1. Member
    Join Date
    Apr 2007
    Location
    Jordan
    Search Comp PM
    Hello guys,

    I been recording some HD movies from ProgDVB, and been trying to split them , the regular (not HD) recorded films they split fine.. but I am having problem splitting the HD files I recorded.. I was using Avidemux for splitting without re encoding! but when I try to open through this program it open very very slow! and I cant seek through the file!! and a weird thing ,, the 3 or 4 minutes HD files I record appears on the MPC 22 minutes or something!

    any help please?
    here is the text file of the info of a random HD file I have..

    .. Thanks a lot


    General
    Complete name : C:\Video Center\MTVNHD - March 19 16 24 17.mpg
    Format : MPEG-PS
    File size : 747 MiB
    Duration : 9mn 26s
    Overall bit rate : 11.1 Mbps

    Video
    ID : 224 (0xE0)
    Format : AVC
    Format/Info : Advanced Video Codec
    Format profile : Main@L4.0
    Format settings, CABAC : Yes
    Format settings, ReFrames : 4 frames
    Duration : 9mn 25s
    Bit rate : 10.2 Mbps
    Width : 1 920 pixels
    Height : 1 080 pixels
    Display aspect ratio : 16:9
    Frame rate : 25.000 fps
    Color space : YUV
    Chroma subsampling : 4:2:0
    Bit depth : 8 bits
    Scan type : Interlaced
    Scan order : Top Field First
    Bits/(Pixel*Frame) : 0.197
    Stream size : 688 MiB (92%)
    Color primaries : BT.709-5, BT.1361, IEC 61966-2-4, SMPTE RP177
    Transfer characteristics : BT.709-5, BT.1361
    Matrix coefficients : BT.709-5, BT.1361, IEC 61966-2-4 709, SMPTE RP177

    Audio #1
    ID : 192 (0xC0)
    Format : MPEG Audio
    Format version : Version 1
    Format profile : Layer 2
    Duration : 9mn 26s
    Bit rate mode : Constant
    Bit rate : 256 Kbps
    Channel(s) : 2 channels
    Sampling rate : 48.0 KHz
    Compression mode : Lossy
    Delay relative to video : -34ms
    Stream size : 17.3 MiB (2%)

    Audio #2
    ID : 189 (0xBD)-128 (0x80)
    Format : AC-3
    Format/Info : Audio Coding 3
    Mode extension : CM (complete main)
    Muxing mode : DVD-Video
    Duration : 9mn 26s
    Bit rate mode : Constant
    Bit rate : 384 Kbps
    Channel(s) : 2 channels
    Channel positions : Front: L R
    Sampling rate : 48.0 KHz
    Bit depth : 16 bits
    Compression mode : Lossy
    Delay relative to video : -22ms
    Stream size : 25.9 MiB (3%)
    Quote Quote  
  2. Member
    Join Date
    Aug 2009
    Location
    New Zealand
    Search Comp PM
    use VideoReDo TVSuite V4
    Quote Quote  
  3. Member
    Join Date
    Apr 2007
    Location
    Jordan
    Search Comp PM
    I tried it it's not working
    Quote Quote  
  4. Member
    Join Date
    Aug 2009
    Location
    New Zealand
    Search Comp PM
    Originally Posted by Adoll View Post
    I tried it it's not working
    wtf that app should work ive rec stuff of mtv hd same as your video and that app has worked fine
    Quote Quote  
  5. Member
    Join Date
    Apr 2007
    Location
    Jordan
    Search Comp PM
    When I try to open the recorded mpeg it says file error
    Quote Quote  
  6. Save file as *.ts and it should open.
    Quote Quote  
  7. Member
    Join Date
    Apr 2007
    Location
    Jordan
    Search Comp PM
    tried not working. I donno what's wrong!!!
    Quote Quote  



Similar Threads