VideoHelp Forum

Try DVDFab and download streaming video, copy, convert or make Blu-rays,DVDs! Download free trial !
+ Reply to Thread
Results 1 to 4 of 4
Thread
  1. okey, i have spend 4 days learning how make a blu-ray rip and so on, i've used this guide:
    Code:
    http://www.sb-innovation.de/f209/how-create-xvid-brrip-720p-mkv-19364/
    . i have little problem with size of it, it always is about 4-5gb and bitrate is 881kbps.. so the video is 2h58min long and audio track is 570mb (448kbps). so what is my problem? how can i configure it to be 2-3gb size?
    Quote Quote  
  2. aBigMeanie aedipuss's Avatar
    Join Date
    Oct 2005
    Location
    666th portal
    Search Comp PM
    why? at under 1000kbps it already sucks badly.
    --
    "a lot of people are better dead" - prisoner KSC2-303
    Quote Quote  
  3. tried already with 1900kbps but always same, little bit confusing what im doing wrong. i'll make a rip and post mediainfo
    Quote Quote  
  4. Format : AVI
    Format/Info : Audio Video Interleave
    Format profile : OpenDML
    File size : 5.39 GiB
    Duration : 2h 58mn
    Overall bit rate : 4 329 Kbps
    Writing application : VirtualDubMod 1.5.10.2 (build 2540/release)
    Writing library : VirtualDubMod build 2540/release

    Video
    ID : 0
    Format : MPEG-4 Visual
    Format profile : Advanced Simple@L5
    Format settings, BVOP : 2
    Format settings, QPel : No
    Format settings, GMC : No warppoints
    Format settings, Matrix : Default (MPEG)
    Muxing mode : Packed bitstream
    Codec ID : XVID
    Codec ID/Hint : XviD
    Duration : 2h 58mn
    Bit rate : 2 784 Kbps
    Width : 720 pixels
    Height : 312 pixels
    Display aspect ratio : 4.154
    Frame rate : 23.976 fps
    Color space : YUV
    Chroma subsampling : 4:2:0
    Bit depth : 8 bits
    Scan type : Progressive
    Compression mode : Lossy
    Bits/(Pixel*Frame) : 0.517
    Stream size : 3.46 GiB (64%)
    Writing library : XviD 1.2.1 (UTC 2008-12-04)

    Audio
    ID : 1
    Format : PCM
    Format settings, Endianness : Little
    Format settings, Sign : Signed
    Codec ID : 1
    Codec ID/Hint : Microsoft
    Duration : 2h 58mn
    Bit rate mode : Constant
    Bit rate : 1 536 Kbps
    Channel(s) : 2 channels
    Sampling rate : 48.0 KHz
    Bit depth : 16 bits
    Stream size : 1.91 GiB (35%)
    Interleave, duration : 42 ms (1.00 video frame)
    Interleave, preload duration : 500 ms
    Quote Quote  



Similar Threads