VideoHelp Forum

Try DVDFab and download streaming video, copy, convert or make Blu-rays,DVDs! Download free trial !
Closed Thread
Results 1 to 5 of 5
Thread
  1. Member
    Join Date
    Feb 2011
    Location
    Australia
    Search Comp PM
    Hi. I have a Kaiser Baas K100, basically here's all the details about it:
    Enjoy HD movies, music and photos on your TV from a USB device or network

    Wireless dongle included.

    The Wireless MediaPlayer connects to your TV and allows you to play your movies, music and photos from a USB memory stick, USB Hard Drive, USB DVD-ROM, or from a PC or Storage device on your network. The WiFi MediaPlayer is supplied with a USB WiFi dongle so there is no need to have a wired network port near your TV.
    • Stream media over wired or wireless network
    • Play files from USB Storage devices
    • 1080P High Definition
    Main features:

    • Wired or WiFi network streaming - Stream media across your wired or wireless network from your PC or NAS (Network Attached Storage) to your TV
    • Play media from USB storage devices - Play movies, music and photos from USB storage devices, including USB memory sticks and external hard drives
    • Full HD video playback - Watch Full 1080P High Definition formats, including MKV, H.264, M2TS, BDMV, BDISO and listen to superior digital audio
    • NAS, BitTorrent function, file copy and play DVDs - Turn your external hard drive into a NAS, download BitTorrents, copy files bewteen USB devices and play from USB drives
    Other features:

    • Wifi out of the box! Supplied with 11n USB dongle.
    • Copy files between USB devices, great for file sharing.
    • Supports all major video formats, DVD playback with menu navigation and Blu-ray playback
    • Supports all major audio formats, Dolby Digital and DTS
    • Supports all common file formats,able to play slideshow with music and supports panning and zooming
    • Network LAN connection, WiFi connection and able to stream from a PC or from a DLNA compatible media server
    • USB ports available, supports connection of a USB DVD-Rom, able to access multiple hard drives simultaneously and supports connection of cameras and MP3 players
    • HDMI,Component,Composite and Optical connections
    • NAS & BitTorrent, able to access USB hard drive over the network, supports BitTorrent downloads, able to download BitTorrent files while playing a media file
    • Volume control on the remote
    Specifications:

    • Video decoding
      • Video codec: MPEG1 / 2 / 4, Divx, Xvid, H.264, WMA, VC-1, RM / R MVB
      • Format: WMV, MKV, MOV, AVI, MP4, MPG, TS / M2TS / TP, ISO, IFO, VOB, DAT, RM / RMVB, BDMV, BDISO, MTS
    • Audio decoding: MP3, WMA, AAC, WAV, OGG, Dolby Digital, DTS
    • JPEG decoding: JPEG, PNG, BMP, GIF
    • Network connection: RJ45 10 / 100M connect and via WiFi dongle (included)
    • Subtitle: SMI, SRT, SUB, SSA
    • Video output: Composite / Component / HDMI
    • Audio output: Stereo / Digital HDMI / Optical
    • USB: Host 2.0 x 2
    • Dimensions: 160 x 120 x 45 mm (width x height x depth)
    • Power adapter: AC input: 100 - 240V, 50Hz / 60Hz, DC output: 12V, 1.5A

    Now, my problem is, for some reason it plays some AVIs and MKVs and others it doesn't.

    I've included a comparison of 2 MKVs using media info. I can't tell the difference but I'm hoping somebody can, and can tell me why it's playing one and not the other.


    File 1:
    General

    Unique ID : 236668872245401296233806493843487371970 (0xB20CC44CC1194B66BFECC572AA9EB2C2) Complete name : C:\inception\I.N.C.E.P.T.I.O.N.2010.D.BDRip.720p.m kv Format : Matroska File size : 7.66 GiB Duration : 2h 28mn Overall bit rate : 7 407 Kbps Encoded date : UTC 2010-12-03 18:28:38 Writing application : mkvmerge v2.3.0 ('Freak U') built on Sep 8 2008 18:32:16 Writing library : libebml v0.7.7 + libmatroska v0.8.1
    Video

    ID : 1 Format : AVC Format/Info : Advanced Video Codec Format profile : High@L4.1 Format settings, CABAC : Yes Format settings, ReFrames : 9 frames Codec ID : V_MPEG4/ISO/AVC Duration : 2h 28mn Bit rate : 5 254 Kbps Width : 1 280 pixels Height : 534 pixels Display aspect ratio : 2.35:1 Frame rate : 23.976 fps Color space : YUV Chroma subsampling : 4:2:0 Bit depth : 8 bits Scan type : Progressive Bits/(Pixel*Frame) : 0.321 Stream size : 5.29 GiB (69%) Writing library : x264 core 108 r1766+332 1be361f Encoding settings : cabac=1 / ref=10 / deblock=1:-3:-3 / analyse=0x3:0x133 / me=tesa / subme=10 / psy=1 / fade_compensate=0.00 / psy_rd=0.70:0.05 / mixed_ref=1 / me_range=24 / chroma_me=1 / trellis=2 / 8x8dct=1 / cqm=0 / deadzone=21,11 / fast_pskip=0 / chroma_qp_offset=-3 / threads=6 / sliced_threads=0 / nr=0 / decimate=0 / interlaced=0 / constrained_intra=0 / fgo=0 / bframes=6 / b_pyramid=1 / b_adapt=2 / b_bias=0 / direct=3 / weightb=1 / open_gop=0 / weightp=2 / keyint=250 / keyint_min=23 / scenecut=40 / intra_refresh=0 / rc=2pass / mbtree=0 / bitrate=5254 / ratetol=1.0 / qcomp=0.60 / qpmin=10 / qpmax=40 / qpstep=4 / cplxblur=20.0 / qblur=0.5 / ip_ratio=1.40 / pb_ratio=1.30 / aq=1:0.70 Language : English
    Audio #1

    ID : 2 Format : AC-3 Format/Info : Audio Coding 3 Mode extension : CM (complete main) Codec ID : A_AC3 Duration : 2h 28mn Bit rate mode : Constant Bit rate : 640 Kbps Channel(s) : 6 channels Channel positions : Front: L C R, Side: L R, LFE Sampling rate : 48.0 KHz Bit depth : 16 bits Compression mode : Lossy Stream size : 678 MiB (9%) Title : DD@640kbs@5.1, Дубляж Language : Russian
    Audio #2

    ID : 3 Format : DTS Format/Info : Digital Theater Systems Codec ID : A_DTS Duration : 2h 28mn Bit rate mode : Constant Bit rate : 1 510 Kbps Channel(s) : 6 channels Channel positions : Front: L C R, Side: L R, LFE Sampling rate : 48.0 KHz Bit depth : 24 bits Compression mode : Lossy Stream size : 1.56 GiB (20%) Title : DTS@1536kbs@5.1, Оригинал Language : English
    Text #1

    ID : 4 Format : UTF-8 Codec ID : S_TEXT/UTF8 Codec ID/Info : UTF-8 Plain Text Title : Force@BD Language : Russian
    Text #2

    ID : 5 Format : UTF-8 Codec ID : S_TEXT/UTF8 Codec ID/Info : UTF-8 Plain Text Title : Full@BD Language : Russian
    Text #3

    ID : 6 Format : UTF-8 Codec ID : S_TEXT/UTF8 Codec ID/Info : UTF-8 Plain Text Title : Force@BD Language : English
    Text #4

    ID : 7 Format : UTF-8 Codec ID : S_TEXT/UTF8 Codec ID/Info : UTF-8 Plain Text Title : Full@SDH Language : English
    Menu

    00:00:00.000 : en:Scene 1 00:11:41.743 : en:Scene 2 00:21:37.338 : en:Scene 3 00:31:20.337 : en:Scene 4 00:41:22.230 : en:Scene 5 00:51:13.737 : en:Scene 6 01:01:21.553 : en:Scene 7 01:10:29.684 : en:Scene 8 01:22:15.597 : en:Scene 9 01:31:52.590 : en:Scene 10 01:40:38.532 : en:Scene 11 01:51:22.175 : en:Scene 12 02:00:54.414 : en:Scene 13 02:10:09.051 : en:Scene 14 02:20:55.447 : en:Scene 15This one works.

    File 2:
    General

    Unique ID : 203362081507007491947795268632952810975 (0x98FE1CBB48B132D5891439C302F5ADDF) Complete name : C:\onion\aaf-onn.s01e03.720p.mkv Format : Matroska File size : 559 MiB Duration : 21mn 38s Overall bit rate : 3 611 Kbps Encoded date : UTC 2011-02-05 04:03:35 Writing application : mkvmerge v3.4.0 ('Rapunzel') built on May 15 2010 09:38:20 Writing library : libebml v0.8.0 + libmatroska v0.9.0
    Video

    ID : 2 Format : AVC Format/Info : Advanced Video Codec Format profile : High@L4.1 Format settings, CABAC : Yes Format settings, ReFrames : 4 frames Codec ID : V_MPEG4/ISO/AVC Duration : 21mn 38s Bit rate : 3 224 Kbps Width : 1 280 pixels Height : 720 pixels Display aspect ratio : 16:9 Frame rate : 29.970 fps Color space : YUV Chroma subsampling : 4:2:0 Bit depth : 8 bits Scan type : Progressive Bits/(Pixel*Frame) : 0.117 Stream size : 488 MiB (87%) Writing library : x264 core 112 r1867 22bfd31 Encoding settings : cabac=1 / ref=3 / deblock=1:0:0 / analyse=0x3:0x113 / me=hex / subme=6 / psy=1 / psy_rd=1.00:0.00 / mixed_ref=0 / me_range=16 / chroma_me=1 / trellis=1 / 8x8dct=1 / cqm=0 / deadzone=21,11 / fast_pskip=1 / chroma_qp_offset=-2 / threads=20 / sliced_threads=0 / nr=0 / decimate=1 / interlaced=0 / constrained_intra=0 / bframes=3 / b_pyramid=2 / b_adapt=1 / b_bias=0 / direct=1 / weightb=1 / open_gop=0 / weightp=0 / keyint=250 / keyint_min=25 / scenecut=40 / intra_refresh=0 / rc_lookahead=40 / rc=2pass / mbtree=1 / bitrate=3224 / ratetol=1.0 / qcomp=0.60 / qpmin=0 / qpmax=51 / qpstep=4 / cplxblur=20.0 / qblur=0.5 / ip_ratio=1.40 / aq=1:1.00 Language : English
    Audio

    ID : 1 Format : AC-3 Format/Info : Audio Coding 3 Mode extension : CM (complete main) Codec ID : A_AC3 Duration : 21mn 38s Bit rate mode : Constant Bit rate : 384 Kbps Channel(s) : 6 channels Channel positions : Front: L C R, Side: L R, LFE Sampling rate : 48.0 KHz Bit depth : 16 bits Compression mode : Lossy Stream size : 59.4 MiB (11%)
    This one doesn't. Could somebody please help?

  2. Member hech54's Avatar
    Join Date
    Jul 2001
    Location
    Yank in Europe
    Search Comp PM
    Originally Posted by chelanxar View Post
    C:\inception\I.N.C.E.P.T.I.O.N.2010.D.BDRip.720p.m kv
    C:\onion\aaf-onn.s01e03.720p.mkv
    Stop downloading the movies and rip them yourself, then you can create the correct files for your player.


    http://www.google.com/#hl=en&sugexp=ldymls&xhr=t&q=I.N.C.E.P.T.I.O.N.2010.D.BDRip.720p...18c74a530&bs=1

    http://www.google.com/#hl=en&sugexp=ldymls&xhr=t&q=aaf-onn.s01e03.720p&cp=19&pf=p&scli...26f1018c74a530

  3. Member
    Join Date
    Feb 2011
    Location
    Australia
    Search Comp PM
    anybody have any real answers?

  4. Most standalone players can be picky about certain formats. One file had a much higher bitrate was all I noticed, but that could be the problem or it might be something else. Could just be a corrupted file.

    I would recommend either check a dedicated forum for that particular device or test a large number of files whose parameters you are familiar with.

  5. Mod Neophyte Super Moderator redwudz's Avatar
    Join Date
    Sep 2002
    Location
    USA
    Search Comp PM
    Buy the video instead. Thread closed.

    Moderator redwudz




Similar Threads