VideoHelp Forum


Try DVDFab Video Downloader and rip Netflix video! Or Try DVDFab and copy Blu-rays! or rip iTunes movies!
+ Reply to Thread
Results 1 to 5 of 5
Thread
  1. Hi,
    I have a program that captures videos streams in asf formats. The files play fine without any issue.
    When I try to convert the asf file to any other format, I get audio sync problem.
    I tried many video converters (super, DVDfab, handbreak, MS movie maker) and the result is always the same.
    Is there something I need to do before I convert these files? Below is the media info for the file
    Thanks

    General
    Complete name : C:\an1.asf
    Format : Windows Media
    File size : 35.1 MiB
    Duration : 5mn 34s
    Overall bit rate : 880 Kbps
    Maximum Overall bit rate : 933 Kbps
    Movie name :
    Performer :
    Video
    ID : 2
    Format : VC-1
    Codec ID : WMV3
    Codec ID/Info : Windows Media Video 9
    Codec ID/Hint : WMV3
    Duration : 5mn 34s
    Bit rate : 805 Kbps
    Width : 640 pixels
    Height : 480 pixels
    Display aspect ratio : 4:3
    Frame rate : 29.970 fps
    Bit depth : 8 bits
    Compression mode : Lossy
    Bits/(Pixel*Frame) : 0.087
    Stream size : 32.1 MiB (91%)
    Audio
    ID : 1
    Format : WMA
    Format version : Version 2
    Codec ID : 161
    Codec ID/Info : Windows Media Audio
    Duration : 5mn 34s
    Bit rate : 32.0 Kbps
    Channel(s) : 2 channels
    Sampling rate : 32.0 KHz
    Bit depth : 16 bits
    Stream size : 1.28 MiB (4%)
    Quote Quote  
  2. Member hech54's Avatar
    Join Date
    Jul 2001
    Location
    Yank in Europe
    Search Comp PM
    WMV....that explains it all. Just as bad as FLV. Both are virtual dead ends without a lot of work involved.
    Quote Quote  
  3. Thanks guys. I was hoping for a more quick and easy way to do this. We only need to convert these files for nthe kids ipod. Since they can watch these on the computer fine, I think I will experiment and see if there is an easier solution.
    Quote Quote  
  4. I'm a MEGA Super Moderator Baldrick's Avatar
    Join Date
    Aug 2000
    Location
    Sweden
    Search Comp PM
    andy99: PLease don't cross post. Bump your thread instead.

    Solution in https://forum.videohelp.com/threads/330752-converting-asf-file-audio-sync-issues?p=2048...40#post2048940
    Quote Quote  



Similar Threads