VideoHelp Forum


Try DVDFab Video Downloader and rip Netflix video! Or Try DVDFab and copy Blu-rays! or rip iTunes movies!
+ Reply to Thread
Results 1 to 3 of 3
Thread
  1. Following samples may be useful for VideoPlayer's, VideoEncoder's and VideoEditor's Developers for stream selection. I will try to keep file size below 200mb, RapidShare Free Account file size limit 200mb. In case if anyone need larger sample, let me know here, i will upload in parts in RAR format.

    DOWNLOAD LINK

    http://rapidshare.com/files/431855416/Multi_Audio_n_Subtitles_Sample_1.vob

    General
    Complete name : Multi_Audio_n_Subtitles_Sample_1.vob
    Format : MPEG-PS
    File size : 83.8 MiB
    Duration : 2mn 14s
    Overall bit rate : 5 226 Kbps

    Video
    ID : 224 (0xE0)
    Format : MPEG Video
    Format version : Version 2
    Format profile : Main@Main
    Format settings, BVOP : Yes
    Format settings, Matrix : Default
    Format settings, GOP : M=3, N=12
    Duration : 2mn 14s
    Bit rate mode : Variable
    Bit rate : 3 714 Kbps
    Nominal bit rate : 9 800 Kbps
    Width : 720 pixels
    Height : 480 pixels
    Display aspect ratio : 16:9
    Frame rate : 23.976 fps
    Standard : NTSC
    Color space : YUV
    Chroma subsampling : 4:2:0
    Bit depth : 8 bits
    Scan type : Progressive
    Scan order : 2:3 Pulldown
    Bits/(Pixel*Frame) : 0.448
    Stream size : 59.4 MiB (71%)

    Audio #1
    ID : 128 (0x80)
    Format : AC-3
    Format/Info : Audio Coding 3
    Mode extension : CM (complete main)
    Duration : 2mn 14s
    Bit rate mode : Constant
    Bit rate : 448 Kbps
    Channel(s) : 6 channels
    Channel positions : Front: L C R, Side: L R, LFE
    Sampling rate : 48.0 KHz
    Bit depth : 16 bits
    Video delay : -136ms
    Stream size : 7.18 MiB (9%)

    Audio #2
    ID : 129 (0x81)
    Format : AC-3
    Format/Info : Audio Coding 3
    Mode extension : CM (complete main)
    Duration : 2mn 14s
    Bit rate mode : Constant
    Bit rate : 384 Kbps
    Channel(s) : 6 channels
    Channel positions : Front: L C R, Side: L R, LFE
    Sampling rate : 48.0 KHz
    Bit depth : 16 bits
    Video delay : -136ms
    Stream size : 6.16 MiB (7%)

    Audio #3
    ID : 130 (0x82)
    Format : AC-3
    Format/Info : Audio Coding 3
    Mode extension : CM (complete main)
    Duration : 2mn 14s
    Bit rate mode : Constant
    Bit rate : 384 Kbps
    Channel(s) : 6 channels
    Channel positions : Front: L C R, Side: L R, LFE
    Sampling rate : 48.0 KHz
    Bit depth : 16 bits
    Video delay : -136ms
    Stream size : 6.16 MiB (7%)

    Audio #4
    ID : 131 (0x83)
    Format : AC-3
    Format/Info : Audio Coding 3
    Format profile : Dolby Digital
    Mode extension : CM (complete main)
    Duration : 2mn 14s
    Bit rate mode : Constant
    Bit rate : 192 Kbps
    Channel(s) : 2 channels
    Channel positions : Front: L R
    Sampling rate : 48.0 KHz
    Bit depth : 16 bits
    Video delay : -72ms
    Stream size : 3.08 MiB (4%)


    SAMPLE 2

    DOWNLOAD LINK

    http://rapidshare.com/files/424737190/VideoSampleClip.mpeg

    General
    Complete name : VideoSampleClip.mpeg
    Format : MPEG-PS
    File size : 73.0 MiB
    Duration : 2mn 36s
    Overall bit rate : 3 909 Kbps

    Video
    ID : 224 (0xE0)
    Format : MPEG Video
    Format version : Version 2
    Format profile : Main@Main
    Format settings, BVOP : Yes
    Format settings, Matrix : Default
    Duration : 2mn 36s
    Bit rate mode : Variable
    Bit rate : 2 807 Kbps
    Nominal bit rate : 9 800 Kbps
    Width : 720 pixels
    Height : 480 pixels
    Display aspect ratio : 16:9
    Frame rate : 23.976 fps
    Standard : Component
    Color space : YUV
    Chroma subsampling : 4:2:0
    Bit depth : 8 bits
    Scan type : Progressive
    Scan order : 2:3 Pulldown
    Bits/(Pixel*Frame) : 0.339
    Stream size : 52.3 MiB (72%)

    Audio #1
    ID : 128 (0x80)
    Format : AC-3
    Format/Info : Audio Coding 3
    Mode extension : CM (complete main)
    Duration : 2mn 36s
    Bit rate mode : Constant
    Bit rate : 448 Kbps
    Channel(s) : 6 channels
    Channel positions : Front: L C R, Side: L R, LFE
    Sampling rate : 48.0 KHz
    Bit depth : 16 bits
    Video delay : -78ms
    Stream size : 8.36 MiB (11%)

    Audio #2
    ID : 129 (0x81)
    Format : AC-3
    Format/Info : Audio Coding 3
    Format profile : Dolby Digital
    Mode extension : CM (complete main)
    Duration : 2mn 36s
    Bit rate mode : Constant
    Bit rate : 192 Kbps
    Channel(s) : 2 channels
    Channel positions : Front: L R
    Sampling rate : 48.0 KHz
    Bit depth : 16 bits
    Video delay : -78ms
    Stream size : 3.58 MiB (5%)

    Audio #3
    ID : 130 (0x82)
    Format : AC-3
    Format/Info : Audio Coding 3
    Format profile : Dolby Digital
    Mode extension : CM (complete main)
    Duration : 2mn 36s
    Bit rate mode : Constant
    Bit rate : 192 Kbps
    Channel(s) : 2 channels
    Channel positions : Front: L R
    Sampling rate : 48.0 KHz
    Bit depth : 16 bits
    Video delay : -78ms
    Stream size : 3.58 MiB (5%)

    Audio #4
    ID : 131 (0x83)
    Format : AC-3
    Format/Info : Audio Coding 3
    Format profile : Dolby Digital
    Mode extension : CM (complete main)
    Duration : 2mn 36s
    Bit rate mode : Constant
    Bit rate : 192 Kbps
    Channel(s) : 2 channels
    Channel positions : Front: L R
    Sampling rate : 48.0 KHz
    Bit depth : 16 bits
    Video delay : -78ms
    Stream size : 3.58 MiB (5%)

    Text #1
    ID : 32 (0x20)
    Format : RLE
    Format/Info : Run-length encoding
    Duration : 2mn 33s
    Video delay : 751ms

    Text #2
    ID : 33 (0x21)
    Format : RLE
    Format/Info : Run-length encoding
    Duration : 2mn 33s
    Video delay : 751ms

    Text #3
    ID : 224 (0xE0)-DVD-2
    Format : EIA-608
    Muxing mode : DVD-Video
    Muxing mode, more info : Muxed in Video #1
    Stream size : 0.00 Byte (0%)

    Text #4
    ID : 34 (0x22)
    Format : RLE
    Format/Info : Run-length encoding

    Text #5
    ID : 35 (0x23)
    Format : RLE
    Format/Info : Run-length encoding

    SAMPLE 3

    download links:
    LINK-1
    1) http://rapidshare.com/files/424560778/video_sample_ac3_n_pcm_with_sub_.vob

    alternate link
    2) http://rapidshare.com/files/424560883/video_sample_ac3_n_pcm_with_sub_.vob

    Media Info:
    General
    Complete name : video_sample[ac3 n pcm with sub].vob
    Format : MPEG-PS
    File size : 114 MiB
    Duration : 3mn 22s
    Overall bit rate : 4 729 Kbps

    Video
    ID : 224 (0xE0)
    Format : MPEG Video
    Format version : Version 2
    Format profile : Main@Main
    Format settings, BVOP : Yes
    Format settings, Matrix : Default
    Format settings, GOP : M=3, N=15
    Duration : 2mn 33s
    Bit rate mode : Variable
    Bit rate : 2 651 Kbps
    Nominal bit rate : 8 000 Kbps
    Width : 720 pixels
    Height : 480 pixels
    Display aspect ratio : 4:3
    Frame rate : 29.970 fps
    Standard : NTSC
    Color space : YUV
    Chroma subsampling : 4:2:0
    Bit depth : 8 bits
    Scan type : Interlaced
    Scan order : Top Field First
    Bits/(Pixel*Frame) : 0.256
    Stream size : 48.4 MiB (42%)

    Audio #1
    ID : 129 (0x81)
    Format : AC-3
    Format/Info : Audio Coding 3
    Mode extension : CM (complete main)
    Duration : 2mn 33s
    Bit rate mode : Constant
    Bit rate : 448 Kbps
    Channel(s) : 6 channels
    Channel positions : Front: L C R, Side: L R, LFE
    Sampling rate : 48.0 KHz
    Bit depth : 16 bits
    Video delay : -48s 754ms
    Stream size : 8.21 MiB (7%)

    Audio #2
    ID : 160 (0xA0)
    Format : PCM
    Format settings, Endianness : Big
    Format settings, Sign : Signed
    Muxing mode : DVD-Video
    Duration : 3mn 22s
    Bit rate mode : Constant
    Bit rate : 1 536 Kbps
    Channel(s) : 2 channels
    Channel positions : Front: L R
    Sampling rate : 48.0 KHz
    Bit depth : 16 bits
    Video delay : -48s 839ms
    Stream size : 37.1 MiB (32%)

    Text#1 : enSUB.srt

    SAMPLE 4

    DOWNLOAD LINK

    http://rapidshare.com/files/431868665/Multi_Audio_n_Subtitles_Sample_2.vob

    General
    Complete name : Multi_Audio_n_Subtitles_Sample_2.vob
    Format : MPEG-PS
    File size : 112 MiB
    Duration : 2mn 35s
    Overall bit rate : 6 078 Kbps

    Video
    ID : 224 (0xE0)
    Format : MPEG Video
    Format version : Version 2
    Format profile : Main@Main
    Format settings, BVOP : Yes
    Format settings, Matrix : Default
    Format settings, GOP : M=3, N=12
    Duration : 2mn 34s
    Bit rate mode : Variable
    Bit rate : 4 677 Kbps
    Nominal bit rate : 7 500 Kbps
    Width : 720 pixels
    Height : 480 pixels
    Display aspect ratio : 16:9
    Frame rate : 23.976 fps
    Standard : NTSC
    Color space : YUV
    Chroma subsampling : 4:2:0
    Bit depth : 8 bits
    Scan type : Progressive
    Scan order : 2:3 Pulldown
    Bits/(Pixel*Frame) : 0.564
    Stream size : 86.1 MiB (77%)

    Audio #1
    ID : 128 (0x80)
    Format : AC-3
    Format/Info : Audio Coding 3
    Mode extension : CM (complete main)
    Duration : 2mn 35s
    Bit rate mode : Constant
    Bit rate : 448 Kbps
    Channel(s) : 6 channels
    Channel positions : Front: L C R, Side: L R, LFE
    Sampling rate : 48.0 KHz
    Bit depth : 16 bits
    Video delay : -30ms
    Stream size : 8.29 MiB (7%)

    Audio #2
    ID : 129 (0x81)
    Format : AC-3
    Format/Info : Audio Coding 3
    Mode extension : CM (complete main)
    Duration : 2mn 35s
    Bit rate mode : Constant
    Bit rate : 448 Kbps
    Channel(s) : 6 channels
    Channel positions : Front: L C R, Side: L R, LFE
    Sampling rate : 48.0 KHz
    Bit depth : 16 bits
    Video delay : -30ms
    Stream size : 8.29 MiB (7%)

    Audio #3
    ID : 130 (0x82)
    Format : AC-3
    Format/Info : Audio Coding 3
    Mode extension : CM (complete main)
    Duration : 2mn 35s
    Bit rate mode : Constant
    Bit rate : 192 Kbps
    Channel(s) : 2 channels
    Channel positions : Front: L R
    Sampling rate : 48.0 KHz
    Bit depth : 16 bits
    Video delay : -14ms
    Stream size : 3.55 MiB (3%)

    Audio #4
    ID : 131 (0x83)
    Format : AC-3
    Format/Info : Audio Coding 3
    Mode extension : CM (complete main)
    Duration : 2mn 35s
    Bit rate mode : Constant
    Bit rate : 192 Kbps
    Channel(s) : 2 channels
    Channel positions : Front: L R
    Sampling rate : 48.0 KHz
    Bit depth : 16 bits
    Video delay : -14ms
    Stream size : 3.55 MiB (3%)

    Text #1
    ID : 32 (0x20)
    Format : RLE
    Format/Info : Run-length encoding
    Video delay : 1s 768ms

    Text #2
    ID : 33 (0x21)
    Format : RLE
    Format/Info : Run-length encoding
    Video delay : 1s 768ms

    Text #3
    ID : 34 (0x22)
    Format : RLE
    Format/Info : Run-length encoding
    Video delay : 1s 768ms

    Text #4
    ID : 35 (0x23)
    Format : RLE
    Format/Info : Run-length encoding
    Video delay : 1s 768ms

    Text #5
    ID : 36 (0x24)
    Format : RLE
    Format/Info : Run-length encoding
    Video delay : 1s 768ms

    Text #6
    ID : 37 (0x25)
    Format : RLE
    Format/Info : Run-length encoding
    Video delay : 1s 768ms

    Text #7
    ID : 224 (0xE0)-DVD-2
    Format : EIA-608
    Muxing mode : DVD-Video
    Muxing mode, more info : Muxed in Video #1
    Stream size : 0.00 Byte (0%)

    In case of need of more samples. Request Here.
    Last edited by Bonie81; 19th Nov 2010 at 13:49.
    Quote Quote  
  2. Hi, the links are dead, is there any chance of re-uploading? I need such files for testing.

    Thanks
    Quote Quote  
  3. Sorry!
    i guess it was my mistake to select wrong file-sharer, and tiny sized files are deleted somehow without or no activities since long.
    I created those samples to test various video programs including various converters and players and provided links here with a hope it might be useful to someone.
    Samples were nothing but chopped-vobs or re-muxed vobs from original DVDs,
    I guess any one can chop and generate similar samples from original DVD.
    I will try to upload one or two back here again without any time limit.
    Quote Quote  



Similar Threads