VideoHelp Forum

Try DVDFab and download streaming video, copy, convert or make Blu-rays,DVDs! Download free trial !
+ Reply to Thread
Results 1 to 5 of 5
Thread
  1. Burning a few Svcds today and i noticed 2 of them come out as oversize in Nero when trying to burn a non compliant Svcd...i have done many and this happens occassionaly..can someone tell me why this happens??And what to do to rectify it?? Thank you


    this is Nero when file is loaded




    this is details of troublesome file



    Format : MPEG-PS
    File size : 796 MiB
    Duration : 1h 16mn
    Overall bit rate : 1 450 Kbps
    Writing library : encoded by TMPGEnc 4.0 XPress Version. 4.2.3.193

    Video
    ID : 224 (0xE0)
    Format : MPEG Video
    Format version : Version 2
    Format profile : Main@Main
    Format settings, BVOP : Yes
    Format settings, Matrix : Default
    Format settings, GOP : M=3, N=18
    Duration : 1h 16mn
    Bit rate mode : Variable
    Bit rate : 1 293 Kbps
    Nominal bit rate : 2 600 Kbps
    Width : 720 pixels
    Height : 480 pixels
    Display aspect ratio : 4:3
    Frame rate : 23.976 fps
    Standard : NTSC
    Color space : YUV
    Chroma subsampling : 4:2:0
    Bit depth : 8 bits
    Scan type : Progressive
    Bits/(Pixel*Frame) : 0.156
    Stream size : 710 MiB (89%)
    Writing library : TMPGEnc XPress 4.2.3.193

    Audio
    ID : 192 (0xC0)
    Format : MPEG Audio
    Format version : Version 1
    Format profile : Layer 2
    Duration : 1h 16mn
    Bit rate mode : Constant
    Bit rate : 128 Kbps
    Channel(s) : 2 channels
    Sampling rate : 48.0 KHz
    Stream size : 70.3 MiB (9%)

    Here are details of another and this one was ok to burn!



    Format : MPEG-PS
    File size : 794 MiB
    Duration : 1h 33mn
    Overall bit rate : 1 186 Kbps
    Writing library : encoded by TMPGEnc 4.0 XPress Version. 4.2.3.193

    Video
    ID : 224 (0xE0)
    Format : MPEG Video
    Format version : Version 2
    Format profile : Main@Main
    Format settings, BVOP : Yes
    Format settings, Matrix : Default
    Format settings, GOP : M=3, N=18
    Duration : 1h 33mn
    Bit rate mode : Variable
    Bit rate : 1 034 Kbps
    Nominal bit rate : 2 600 Kbps
    Width : 720 pixels
    Height : 480 pixels
    Display aspect ratio : 4:3
    Frame rate : 23.976 fps
    Standard : NTSC
    Color space : YUV
    Chroma subsampling : 4:2:0
    Bit depth : 8 bits
    Scan type : Progressive
    Bits/(Pixel*Frame) : 0.125
    Stream size : 693 MiB (87%)
    Writing library : TMPGEnc XPress 4.2.3.193

    Audio
    ID : 192 (0xC0)
    Format : MPEG Audio
    Format version : Version 1
    Format profile : Layer 2
    Duration : 1h 33mn
    Bit rate mode : Constant
    Bit rate : 128 Kbps
    Channel(s) : 2 channels
    Sampling rate : 48.0 KHz
    Stream size : 85.7 MiB (11%)
    Quote Quote  
  2. Mod Neophyte Super Moderator redwudz's Avatar
    Join Date
    Sep 2002
    Location
    USA
    Search Comp PM
    With Nero, you should be able to burn SVCDs in Mode 2. I used to do them with Nero and I could get up to 830MB on a regular CD. Mode 2 doesn't add error checking files, so there is more room and no overburning needed. You don't really need error checking with a video file, it's more for data files. I believe you can also do this with ISO files pretty much automatically, IE, .bin-.cue files.
    Quote Quote  
  3. Hi redwudz

    Thanks for the reply..I just checked nero and it is set mode2 burning.. I decided to try and convert the mpeg in VCDEasy and this shows the mpeg at over 9oo MB??




    Im guessing now that something may have happened in TMPGenc as media info is showing at 795 MB but any other programe is showing it as larger than that..

    To test this i re encoded again in TMPGenc and i get the same stats..but again showing oversize in Nero and VCDEasy..


    To be honest now..i think i will just convert to DVD...But i would like to get to the bottom of this just out of curiosity...




    Quote Quote  
  4. DECEASED
    Join Date
    Jun 2009
    Location
    Heaven
    Search Comp PM
    @ Soixante:

    1) use *Windows Explorer* for determining the actual filesizes

    2)

    <MEDIAINFO>
    Width : 720 pixels
    Height : 480 pixels
    </MEDIAINFO>

    for an SVCD ???
    Last edited by El Heggunte; 3rd Nov 2010 at 12:47. Reason: grammar
    Quote Quote  
  5. Originally Posted by El Heggunte View Post
    @ Soixante:

    1) use *Windows Explorer* for determining the actual filesizes

    2)

    <MEDIAINFO>
    Width : 720 pixels
    Height : 480 pixels
    </MEDIAINFO>

    for an SVCD ???

    Yes..thanks for pointing that out..ill try again at 480x480 to see if that makes a difference..Also windows explorer says the file is 795 Mb as well


    Update

    well for some reason encoding at 480by480 solved it!
    Last edited by Soixante; 5th Nov 2010 at 12:16.
    Quote Quote  



Similar Threads