VideoHelp Forum

Try DVDFab and download streaming video, copy, convert or make Blu-rays,DVDs! Download free trial !
+ Reply to Thread
Results 1 to 6 of 6
Thread
  1. I captured a tv show live online with a software.
    The size of the videos are 160 mb and 35 mb.
    When I try to convert them with XVID4PSP or any other
    converter, I see that the output file size is like 200 gb.
    These are the specs of one file:

    Complete name : C:\Users\Timur\Videos\TV2[1][1][1][1].asf
    Format : Windows Media
    File size : 35.3 MiB
    Overall bit rate mode : Constant
    Overall bit rate : 83 bps
    Maximum Overall bit rate : 357 Kbps
    Encoded date : UTC 2010-09-23 21:18:59.000

    Video
    ID : 2
    Format : VC-1
    Format profile : MP@ML
    Codec ID : WMV3
    Codec ID/Info : Windows Media Video 9
    Codec ID/Hint : WMV3
    Description of the codec : Windows Media Video 9
    Bit rate mode : Constant
    Bit rate : 291 Kbps
    Width : 384 pixels
    Height : 288 pixels
    Display aspect ratio : 4:3
    Frame rate : 25.000 fps
    Bit depth : 8 bits
    Scan type : Progressive
    Bits/(Pixel*Frame) : 0.105
    Stream size : 120 GiB
    Language : English (US)

    Audio
    ID : 1
    Format : WMA
    Format version : Version 2
    Codec ID : 161
    Codec ID/Info : Windows Media Audio
    Description of the codec : Windows Media Audio 9.2 - 48 kbps, 44 kHz, mono (A/V) 1-pass CBR
    Bit rate mode : Constant
    Bit rate : 48.0 Kbps
    Channel(s) : 1 channel
    Sampling rate : 44.1 KHz
    Bit depth : 16 bits
    Stream size : 19.9 GiB
    Language : English (US)
    appearently the stream size of video seems to be 120 GiB. how could it be possible?
    and is there a way that I can convert the video to a small mp4 size without problem?

    i am desperately seeking help cuase its urgent

    thanks
    Quote Quote  
  2. I'm a MEGA Super Moderator Baldrick's Avatar
    Join Date
    Aug 2000
    Location
    Sweden
    Search Comp PM
    One thread is enough. I removed your other.

    It might be corrupt. Try repair the the video with asfbin, add it and make a new asf. Try then convert with xvid4sps or xmedia recode.
    Quote Quote  
  3. i tried with asfbin but no use.
    i couldnt succeed.

    help please!

    i dont know the presets of the program so useless
    Quote Quote  
  4. Anybody help me ??????
    Quote Quote  
  5. I'm a MEGA Super Moderator Baldrick's Avatar
    Join Date
    Aug 2000
    Location
    Sweden
    Search Comp PM
    Please wait some days until you bump/reply to your thread. This is not a chat.

    Try windows movie maker or windows media encoder and reconvert it and see how it works.
    Quote Quote  



Similar Threads