VideoHelp Forum

Our website is made possible by displaying online advertisements to our visitors. Consider supporting us by disable your adblocker or Try ConvertXtoDVD and convert all your movies to DVD. Free trial ! :)
+ Reply to Thread
Results 1 to 4 of 4
Thread
  1. hi !

    i have a big video file with .TS extension (not sure it is its real extension cause the file doesn't produced by me).
    i wish to cut/split it base on a time (from hh:mms to another hh:mms range).
    i tried many soft like tsH264split, TSSplitter and ProjectX but each of them use target file size to cut the file !
    i am under windows seven x64.

    shall you advice me one good software where i can specify a FROM....TO range to cut my video file WITHOUT RECODE it off course !

    thanks

    ps : here the codec information :
    G:\Soundstage2012.ts
    General #1
    ID : 1
    Complete name : G:\Soundstage2012.ts
    Format : MPEG-TS
    File size : 7.19 GiB
    Duration : 55mn 52s
    Overall bit rate : 18.4 Mbps
    Video #17
    ID : 17 (0x11)
    Menu ID : 1 (0x1)
    Format : MPEG Video
    Format version : Version 2
    Format profile : Main@High
    Format settings, Matrix : Default
    Duration : 55mn 52s
    Bit rate mode : Variable
    Bit rate : 16.8 Mbps
    Nominal bit rate : 17.6 Mbps
    Width : 1 920 pixels
    Height : 1 080 pixels
    Display aspect ratio : 16:9
    Frame rate : 29.970 fps
    Colorimetry : 4:2:0
    Scan type : Interlaced
    Scan order : Top Field First
    Bits/(Pixel*Frame) : 0.270
    Stream size : 6.54 GiB (91%)
    Audio #20
    ID : 20 (0x14)
    Menu ID : 1 (0x1)
    Format : AC-3
    Format/Info : Audio Coding 3
    Duration : 55mn 52s
    Bit rate mode : Constant
    Bit rate : 384 Kbps
    Channel(s) : 2 channels
    Channel positions : L R
    Sampling rate : 48.0 KHz
    Video delay : -161ms
    Stream size : 153 MiB (2%)
    Language : English
    Text #17-1
    ID : 17 (0x11)1
    Menu ID : 1 (0x1)
    Format : EIA-708
    Duration : 55mn 52s
    MuxingMode : MPEG Video / EIA-708
    MuxingMode_MoreInfo : Muxed in Video #1
    Quote Quote  
  2. Always Watching guns1inger's Avatar
    Join Date
    Apr 2004
    Location
    Miskatonic U
    Search Comp PM
    TSMuxer can split on duration. You feed it the number of seconds, and that is where it will split the file, without re-encoding. You can also feed it a start and end point in seconds (or minutes - depends on the accuracy you need) and it will keep just that segment.
    Read my blog here.
    Quote Quote  
  3. thanks for help.

    i just tried TSmuxer but it didn't recognize the audio track. I got this error message :
    Some tracks not recognized. This tracks was ignored.
    any other solution ?
    Quote Quote  
  4. hi again !

    i retried TSSplitter.exe and it's fine !!!

    despite the cut based on file size, i didn't see i also could adjust the time in the sub list where the split file are listed.

    very small and good utility and works with big file (>8GN) with Windows Seven x64 !

    mission complete !
    Quote Quote  



Similar Threads