VideoHelp Forum

Our website is made possible by displaying online advertisements to our visitors. Consider supporting us by disable your adblocker or Try ConvertXtoDVD and convert all your movies to DVD. Free trial ! :)
+ Reply to Thread
Results 1 to 2 of 2
Thread
  1. Authoring throws me that error. I've tried exporting (from MPEG StreamClip) as MPEG, Headed MPEG, MPEG with MP2 audio… nothing works.

    I wanted to add subtitles, but I won't even mention that in this thread.

    MediaInfo says:


    General
    Complete name : /Volumes/XXX/_Movies/XXXX/headed.mpeg
    Format : MPEG-PS
    File size : 220 MiB
    Duration : 3mn 56s
    Overall bit rate : 7 815 Kbps

    Video
    ID : 224 (0xE0)
    Format : MPEG Video
    Format version : Version 2
    Format profile : Main@Main
    Format settings, BVOP : Yes
    Format settings, Matrix : Default
    Duration : 3mn 56s
    Bit rate mode : Variable
    Bit rate : 5 996 Kbps
    Width : 720 pixels
    Height : 480 pixels
    Display aspect ratio : 16:9
    Frame rate : 29.970 fps
    Standard : NTSC
    Resolution : 8 bits
    Colorimetry : 4:2:0
    Bits/(Pixel*Frame) : 0.579
    Stream size : 169 MiB (77%)

    Audio #1
    ID : 128 (0x80)
    Format : AC-3
    Format/Info : Audio Coding 3
    Format_Settings_ModeExtension : CM (complete main)
    Duration : 3mn 55s
    Bit rate mode : Constant
    Bit rate : 448 Kbps
    Channel(s) : 6 channels
    Channel positions : Front: L C R, Side: L R, LFE
    Sampling rate : 48.0 KHz
    Stream size : 12.6 MiB (6%)

    Audio #2
    ID : 129 (0x81)
    Format : AC-3
    Format/Info : Audio Coding 3
    Format_Settings_ModeExtension : CM (complete main)
    Duration : 3mn 55s
    Bit rate mode : Constant
    Bit rate : 384 Kbps
    Channel(s) : 6 channels
    Channel positions : Front: L C R, Side: L R, LFE
    Sampling rate : 48.0 KHz
    Stream size : 10.8 MiB (5%)

    Audio #3
    ID : 130 (0x82)
    Format : AC-3
    Format/Info : Audio Coding 3
    Format_Settings_ModeExtension : CM (complete main)
    Duration : 3mn 55s
    Bit rate mode : Constant
    Bit rate : 192 Kbps
    Channel(s) : 2 channels
    Channel positions : Front: L R
    Sampling rate : 48.0 KHz
    Stream size : 5.40 MiB (2%)

    Audio #4
    ID : 131 (0x83)
    Format : AC-3
    Format/Info : Audio Coding 3
    Mode : Dual Mono
    Format_Settings_ModeExtension : VI (visually impaired)
    Duration : 3mn 56s
    Bit rate mode : Constant
    Bit rate : 640 Kbps
    Channel(s) : 2 channels
    Channel positions : Front: L R
    Sampling rate : 44.1 KHz
    Video delay : 13ms
    Stream size : 18.0 MiB (8%)
    Quote Quote  
  2. aBigMeanie aedipuss's Avatar
    Join Date
    Oct 2005
    Location
    666th portal
    Search Comp PM
    one of your audio's is 640kbps and 44.1khz - both of which are illegal for dvd.
    --
    "a lot of people are better dead" - prisoner KSC2-303
    Quote Quote  



Similar Threads