VideoHelp Forum

Our website is made possible by displaying online advertisements to our visitors. Consider supporting us by disable your adblocker or Try ConvertXtoDVD and convert all your movies to DVD. Free trial ! :)
+ Reply to Thread
Results 1 to 3 of 3
Thread
  1. Hello,

    I installed the latest demo version of this software. It works fine on files I convert from dvr-ms to mpg. If I try to add a dvr-ms file, I receive the error "ffmpeg.exe has stopped working". I have uninstalled the software and reinstalled it in the C drive but not in program files as this is mentioned in other posts with the same results. I read another post where chrissyboy provides instructions to be ran at a command prompt. Here are the results:
    FFmpeg version SVN-r7159, Copyright (c) 2000-2006 Fabrice Bellard, et al.
    configuration: --enable-memalign-hack --disable-debug --enable-pthreads --ena
    ble-a52 --enable-gpl --enable-dts --enable-faad --enable-avisynth
    libavutil version: 49.1.0
    libavcodec version: 51.27.0
    libavformat version: 51.12.1
    built on Sep 17 2007 14:54:50, gcc: 4.3.0 20061204 (experimental)
    Input #0, asf, from 'C:\Users\Public\Recorded TV\No Commercial\Lost_KSTPDT_02_02
    _2010_18_58_01.dvr-ms':
    Duration: 00:28:35.4, start: 0.000000, bitrate: 20384 kb/s
    Stream #0.0: Invalid Codec type -1
    Stream #0.1: Audio: 0x0000, 48000 Hz, stereo, 383 kb/s
    Stream #0.2: Video: mpeg2video, yuv420p, 1280x720, 20000 kb/s, 59.94 fps(r)
    Must supply at least one output file

    =================== AV Details ===================
    file=C:\Users\Public\Recorded TV\No Commercial\Lost_KSTPDT_02_02_2010_18_58_01.d
    vr-ms
    FormatName=asf
    Num_Frames=102823
    DurationInSecs=1715
    Duration=00:28:35.4
    VideoCodec=mpeg2video
    VideoFFSTNum=2
    Width=1280
    Height=720
    Standard=NTSC (59.94fps)
    BitRate=20384
    AudioStreamCount=1
    Audio1FFSTNum=1
    Audio1StreamID=[0x2]
    Audio1SampleRate=48000


    According to the release notes, this is supposed to work with dvr-ms files.

    Thanks for your help!
    Quote Quote  
  2. An update. I purchased the software even if I had to do the extra step of converting the recorded TV DVR-MS to MPG. Not really that big of a deal as I was already using DVRMS Toolbox to remove the commercials anyway. So I purchased the software and installed it. As a test I selected a dvr-ms file and there was no error. But then I noticed there was no audio (see other post) in the preview so thought I had a different issue. I need to confirm this with a true test but I believe the error went away using the non-demo version of the software.
    Quote Quote  
  3. Member ChrissyBoy's Avatar
    Join Date
    Feb 2003
    Location
    Yorkshire!
    Search Comp PM
    Thanks for the update
    SVCD2DVD v2.5, AVI/MPEG/HDTV/AviSynth/h264->DVD, PAL->NTSC conversion.
    VOB2MPG PRO, Extract mpegs from your DVDs - with you in control!
    Quote Quote  



Similar Threads