VideoHelp Forum

Try DVDFab and download streaming video, copy, convert or make Blu-rays,DVDs! Download free trial !
+ Reply to Thread
Results 1 to 7 of 7
Thread
  1. Hi! So I have a big FLV file with the folowing properties:

    Video: MPEG4 Video (H264) 800x600 24.00fps [Video]
    Audio: AAC 44100Hz stereo 1411kbps [Audio]
    General
    Complete name : F:\Music\fla2F.flv
    Format : MPEG-4
    Format profile : Base Media
    Codec ID : isom
    File size : 346 MiB
    Duration : 42mn 43s
    Overall bit rate : 1 131 Kbps
    Writing application : Lavf52.31.0

    Video
    ID : 1
    Format : AVC
    Format/Info : Advanced Video Codec
    Format profile : High@L3.1
    Format settings, CABAC : Yes
    Format settings, ReFrames : 4 frames
    Codec ID : avc1
    Codec ID/Info : Advanced Video Coding
    Duration : 42mn 43s
    Bit rate mode : Variable
    Bit rate : 1 024 Kbps
    Width : 800 pixels
    Height : 600 pixels
    Display aspect ratio : 4:3
    Frame rate mode : Constant
    Frame rate : 24.000 fps
    Resolution : 24 bits
    Colorimetry : 4:2:0
    Scan type : Progressive
    Bits/(Pixel*Frame) : 0.089
    Stream size : 313 MiB (91%)

    Audio
    ID : 2
    Format : AAC
    Format/Info : Advanced Audio Codec
    Format version : Version 4
    Format profile : LC
    Format settings, SBR : No
    Codec ID : 40
    Duration : 42mn 43s
    Bit rate mode : Variable
    Bit rate : 101 Kbps
    Channel(s) : 2 channels
    Channel positions : L R
    Sampling rate : 44.1 KHz
    Resolution : 16 bits
    Stream size : 31.0 MiB (9%)

    I cut the file with Moyea FLV Editor Lite and got this smaller one:

    Video: MPEG4 Video (H264) 800x608 [Video]
    Audio: AAC 44100Hz stereo [Audio]
    General
    Complete name : C:\....flv
    Format : Flash Video
    File size : 28.5 MiB
    Duration : 3mn 45s
    Overall bit rate : 1 059 Kbps

    Video
    Format : AVC
    Format/Info : Advanced Video Codec
    Format profile : High@L3.1
    Format settings, CABAC : Yes
    Format settings, ReFrames : 4 frames
    Muxing mode : Container profile=Unknown@3.1
    Duration : 3mn 45s
    Width : 800 pixels
    Height : 600 pixels
    Display aspect ratio : 4:3
    Frame rate mode : Variable
    Frame rate : 24.000 fps
    Resolution : 24 bits
    Colorimetry : 4:2:0
    Scan type : Progressive

    Audio
    Format : AAC
    Format/Info : Advanced Audio Codec
    Format version : Version 4
    Format profile : LC
    Format settings, SBR : No
    Duration : 3mn 45s
    Channel(s) : 2 channels
    Channel positions : L R
    Sampling rate : 44.1 KHz
    Resolution : 16 bits

    So I tried to upload the 2nd file to YouTube but it failed.

    AFAIK YouTube accepts FLV. What is wrong with that?
    Quote Quote  
  2. Member
    Join Date
    Feb 2008
    Location
    Twin Peaks
    Search Comp PM
    Does it fail to upload, or convert after uploading?
    Quote Quote  
  3. I tried the same in the past with another flv editor from the same company and had the same problem. I ended demuxing the file with FLV Extract and remuxing and cutting it with MKVtoolnix.
    Quote Quote  
  4. Originally Posted by lowellriggsiam View Post
    Does it fail to upload, or convert after uploading?
    Of course, I meant conversion.
    Quote Quote  
  5. Originally Posted by k. View Post
    I tried the same in the past with another flv editor from the same company and had the same problem. I ended demuxing the file with FLV Extract and remuxing and cutting it with MKVtoolnix.
    Thanks for your reply but I didn't get that with MKVtoolnix.

    "MKVtoolnix is a set of tools to create, alter, split, join and inspect Matroska files(mkv)."
    Quote Quote  
  6. I'm a MEGA Super Moderator Baldrick's Avatar
    Join Date
    Aug 2000
    Location
    Sweden
    Search Comp PM
    Try avidemux, open flv, cut, save as flv or mp4.
    Quote Quote  
  7. Originally Posted by Baldrick View Post
    Try avidemux, open flv, cut, save as flv or mp4.
    Tack!
    Quote Quote  



Similar Threads