VideoHelp Forum

Try DVDFab and download streaming video, copy, convert or make Blu-rays,DVDs! Download free trial !
+ Reply to Thread
Results 1 to 3 of 3
Thread
  1. Member
    Join Date
    Jul 2009
    Location
    Russian Federation
    Search Comp PM
    When i am trying to convert some video get error

    Code:
    Decoder (codec id 86056) not found for input stream #0.0
    Full log

    Code:
    ffmpeg -i tiffany_r_1920.wmv -ar 22050 -sameq  -y 1.flv
    FFmpeg version SVN-r19436, Copyright (c) 2000-2009 Fabrice Bellard, et al.
      configuration: --enable-gpl --enable-libfaac --enable-libfaad --enable-nonfree
      libavutil     50. 3. 0 / 50. 3. 0
      libavcodec    52.32. 0 / 52.32. 0
      libavformat   52.36. 0 / 52.36. 0
      libavdevice   52. 2. 0 / 52. 2. 0
      libswscale     0. 7. 1 /  0. 7. 1
      built on Jul 15 2009 17:43:30, gcc: 4.4.0 20090506 (Red Hat 4.4.0-4)
    
    Seems stream 1 codec frame rate differs from container frame rate: 1000.00 (1000/1) -> 29.97 (30000/1001)
    Input #0, asf, from 'tiffany_r_1920.wmv':
      Duration: 00:26:48.11, start: 8.000000, bitrate: 8237 kb/s
        Stream #0.0(eng): Audio: 0x0162, 48000 Hz, 2 channels, s16, 192 kb/s
        Stream #0.1(eng): Video: vc1, yuv420p, 1920x1080, 7997 kb/s, 29.97 tbr, 1k tbn, 1k tbc
    Output #0, flv, to '1.flv':
        Stream #0.0(eng): Video: flv, yuv420p, 1920x1080, q=2-31, 200 kb/s, 90k tbn, 29.97 tbc
        Stream #0.1(eng): Audio: adpcm_swf, 22050 Hz, 2 channels, s16, 64 kb/s
    Stream mapping:
      Stream #0.1 -> #0.0
      Stream #0.0 -> #0.1
    Decoder (codec id 86056) not found for input stream #0.0
    Faad and faac installed with ./configure --disable-drm --disable-mpeg4ip and ./configure --disable-mp4v2
    ffmpeg installed with ./configure --enable-gpl --enable-libfaac --enable-libfaad --enable-nonfree

    Please help!
    Quote Quote  
  2. not a linux user but i'd guess it doesn't come with a wmv codec installed. you probably need to get a windows media codec.
    Quote Quote  
  3. VH Wanderer Ai Haibara's Avatar
    Join Date
    Jan 2006
    Location
    Somewhere on VideoHelp...
    Search Comp PM
    Also, are you sure the .wmv doesn't have DRM?
    If cameras add ten pounds, why would people want to eat them?
    Quote Quote  



Similar Threads