VideoHelp Forum

Our website is made possible by displaying online advertisements to our visitors. Consider supporting us by disable your adblocker or Try ConvertXtoDVD and convert all your movies to DVD. Free trial ! :)
+ Reply to Thread
Results 1 to 8 of 8
Thread
  1. Member
    Join Date
    Apr 2006
    Location
    Malaysia
    Search Comp PM
    I've downloaded a single flac file which contained 12 song (45 minutes).

    I want to split the file so it contained 1 song per file (like always). What program should I use?

    Also the flac I've download included a cue file having a same file name. I've check it with notepad and it contains the song name, time and some additional info.
    Code:
    REM GENRE Other
    REM DATE 2009
    REM DISCID 8A0A940B
    REM COMMENT "ExactAudioCopy v0.99pb4"
    PERFORMER "IOSYS"
    TITLE "Kimi to deatte ni nen sugoshita watashi ga bimyou ni kawatta riyuu"
    FILE "vocaloid.flac" WAVE
      TRACK 01 AUDIO
        TITLE "Natsu no rocket"
        PERFORMER "ARM"
        INDEX 01 00:00:00
      TRACK 02 AUDIO
        TITLE "Darusaru OL24 Toki"
        PERFORMER "ARM"
        INDEX 01 05:21:54
      TRACK 03 AUDIO
        TITLE "Kabushikigaisha Megurine Suisan-Shaka"
        PERFORMER "D.watt"
        INDEX 01 09:23:27
      TRACK 04 AUDIO
        TITLE "Gogatsu no yamai"
        PERFORMER "Void"
        INDEX 00 13:31:49
        INDEX 01 13:31:50
      TRACK 05 AUDIO
        TITLE "Arrivederci"
        PERFORMER "Void"
        INDEX 00 16:44:63
        INDEX 01 16:44:64
      TRACK 06 AUDIO
        TITLE "Soto, deraren"
        PERFORMER "D.watt"
        INDEX 00 21:00:30
        INDEX 01 21:00:31
      TRACK 07 AUDIO
        TITLE "Tsukiji no hito"
        PERFORMER "D.watt"
        INDEX 00 26:34:58
        INDEX 01 26:34:59
      TRACK 08 AUDIO
        TITLE "Komattara eternal force blizzard"
        PERFORMER "ARM"
        INDEX 00 29:09:59
        INDEX 01 29:09:60
      TRACK 09 AUDIO
        TITLE "TakolkaΩSlow Life"
        PERFORMER "D.watt"
        INDEX 00 32:48:37
        INDEX 01 32:48:38
      TRACK 10 AUDIO
        TITLE "*Sakura DIARY*"
        PERFORMER "Void"
        INDEX 00 36:01:56
        INDEX 01 36:01:57
      TRACK 11 AUDIO
        TITLE "Kono kisetsu wo koete mo"
        PERFORMER "ARM"
        INDEX 00 41:13:63
        INDEX 01 41:13:64
    Any idea what it was?
    You know why people use Mac in their office?
    Because alot of stress can lead people to jump of the "Windows".
    Quote Quote  
  2. Member
    Join Date
    Apr 2006
    Location
    Malaysia
    Search Comp PM
    Big help. Thanks!
    You know why people use Mac in their office?
    Because alot of stress can lead people to jump of the "Windows".
    Quote Quote  
  3. Member FulciLives's Avatar
    Join Date
    May 2003
    Location
    Pittsburgh, PA in the USA
    Search Comp PM
    I normally use foobar2000 for such things. Just load the CUE Sheet file and then you can split it out to separate files using whatever format you want from WAV to FLAC to MP3 or iTunes compatible AAC etc.

    - John "FulciLives" Coleman
    "The eyes are the first thing that you have to destroy ... because they have seen too many bad things" - Lucio Fulci
    EXPLORE THE FILMS OF LUCIO FULCI - THE MAESTRO OF GORE
    Quote Quote  
  4. Audacity is a good tool for this type of thing and you can export each file to MP3, M4A, OGG etc.
    Quote Quote  
  5. Just make sure the file in the cue has the same name, and open it with MagicISO. It will then extract each file from the cue file...
    Quote Quote  
  6. Member
    Join Date
    Jul 2016
    Location
    Canada
    Search Comp PM
    Thanks!
    Quote Quote  
  7. Member
    Join Date
    Mar 2008
    Location
    Netherlands
    Search Comp PM
    you can split it with exact audio copy
    Quote Quote  



Similar Threads